ML
     
  Уважаемый Гость!
Вы можете поддержать проект и зарегистрироваться у наших партнеров - онлайн-стратегия MyLands. При регистрации в игре Вы получите код, который сможете активировать после регистрации на pirat.ca и получить 1000 дублонов.

Ваш код:
e93cd9e43017f251127f220889864c05934e61c6
 
     

Неподсудные / Серии: 1-8 из 8 (Мурад Алиев) [2015 г., Триллер, SATRip]

Ответить на тему
 
Автор
Сообщение

Пост 19-Ноя-2015 10:03

[Q] 

cergo

Гроза морей

-НеподсудныеСерии: 1-8 из 8-- Производство: Россия, Централ Партнершип
Жанр: Триллер
Год выпуска: 2015 г.
Продолжительность: 8 х ~ 00:43:00
Режиссер: Мурад Алиев-В ролях: Игорь Петренко, Кирилл Плетнёв, Сергей Бурунов, Леван Мсхиладзе, Николай Добрынин, Даниил Спиваковский, Сергей Газаров, Антон Хабаров, Елена Николаева (II), Евгений Князев, Петар Зекавица-Описание: События фильма происходят весной 2001 года. Бывший офицер госбезопасности Андрей Воронов попадает под следствие. Его обвиняют в попытке похищения фигуранта громкого уголовного дела, а по сути - в пособничестве коррумпированным чиновникам. Андрей обращается к событиям 10-летней давности, когда он познакомился с человеком, который был на прицеле не только у российских, но и у мировых спецслужб... Чтобы спасти свое имя и репутацию, Воронов должен не просто выжить в смертельной партии, но из пешки превратиться в полноправного игрока.-
Качество видео: SATRip
Контейнер: AVI
Видео кодек: XviD
Аудио кодек: AC3
Видео: 720x400 (1.80:1), 25 fps, XviD build 50 ~1779 kbps avg, 0.25 bit/pixel
Аудио: 48 kHz, MPEG Layer 3, 2 ch, ~128.00 kbps avg
Cубтитры: отсутствуют
Общее
Полное имя : G:\Nepodsudnye 2015 SATRip.avi
Формат : AVI
Формат/Информация : Audio Video Interleave
Размер файла : 586 Мбайт
Продолжительность : 42 м.
Общий поток : 1917 Кбит/сек
Программа кодирования : VirtualDubMod 1.5.10.3 | www.virtualdub-fr.org || (build 2550/release)
Библиотека кодирования : VirtualDub build 32507/release
Видео
Идентификатор : 0
Формат : MPEG-4 Visual
Профиль формата : Advanced [email protected]
Параметр BVOP формата : 2
Параметр QPel формата : Нет
Параметр GMC формата : Без точки перехода
Параметр матрицы формата : Default (MPEG)
Идентификатор кодека : XVID
Идентификатор кодека/Подсказка : XviD
Продолжительность : 42 м.
Битрейт : 1780 Кбит/сек
Ширина : 720 пикселей
Высота : 400 пикселей
Соотношение сторон : 16:9
Частота кадров : 25,000 кадров/сек
Цветовое пространство : YUV
Субдискретизация насыщенности : 4:2:0
Битовая глубина : 8 бит
Тип развёртки : Прогрессивная
Метод сжатия : С потерями
Бит/(Пиксели*Кадры) : 0.247
Размер потока : 544 Мбайт (93%)
Библиотека кодирования : XviD 1.2.1 (UTC 2008-12-04)
Аудио
Идентификатор : 1
Формат : MPEG Audio
Версия формата : Version 1
Профиль формата : Layer 3
Режим : Joint stereo
Расширение режима : MS Stereo
Идентификатор кодека : 55
Идентификатор кодека/Подсказка : MP3
Продолжительность : 42 м.
Вид битрейта : Постоянный
Битрейт : 128 Кбит/сек
Каналы : 2 канала
Частота : 48,0 КГц
Метод сжатия : С потерями
Размер потока : 39,1 Мбайт (7%)
Выравнивание : Соединение по промежуткам
Продолжительность промежутка : 40 мс. (1,00 видеокадр)
Время предзагрузки промежутка : 504 мс.
Библиотека кодирования : LAME3.99r
Настройки программы : -m j -V 4 -q 2 -lowpass 17 -b 128
при каждом добавлении создётся новый торрент. Чтобы начать докачку новой серии, пользователям необходимо сделать следующее:
(1) остановить скачивание,
(2) удалить старый торрент у себя из клиента (старые серии удалять не надо),
(3) скачать новый торрент и запустить его у себя в клиенте, при этом указать клиенту путь в старую папку куда и должно происходить скачивание новых серий.
Ваш клиент при этом должен произвести хеширование (проверку) старой папки и будет докачивать только те серии которых у вас ещё нет. Старые серии при этом не удаляются, а продолжают раздаваться!
Eсли вы уже удалили старые серии, то предотвратить повторную закачку старых серий можно, отжав галочку в соответствующих местах при запуске нового торрента. (по возможности, желательно не удалять старые серии как можно дольше чтобы релизёр не столько продолжал раздавать старые серии, а смог сконцентрироваться на новых)
Скриншоты
Download / Скачать

Хотите скачать бесплатно? Зарегистрируйтесь на сайте (ссылка на регистрацию). Pirat.ca - самый быстрый торрент трекер в рунете!

Как скачивать  ·   Что такое торрент  ·   Рейтинг и ограничения

cergo ®

Гроза морей

20033

Пост 19-Ноя-2015 19:32 (спустя 9 часов)

[Q] 

добавлены 7 и 8 серии
[Профиль]  [ЛС] 

Пост 26-Ноя-2015 08:32 (спустя 6 дней)

Топик был перенесен из форума Отечественные сериалы (Трюм) в форум Отечественные сериалы
Андря
 

Marauder1

Шкипер

Пост 30-Ноя-2015 20:53 (спустя 11 дней)

[Q] 

Интересно на сколько много здесь правды
[Профиль]  [ЛС] 
Показать сообщения:    
Ответить на тему

Текущее время: Сегодня 04:25

Часовой пояс: GMT + 4



Вы не можете начинать темы
Вы не можете отвечать на сообщения
Вы не можете редактировать свои сообщения
Вы не можете удалять свои сообщения
Вы не можете голосовать в опросах
Вы не можете прикреплять файлы к сообщениям
Вы не можете скачивать файлы

▼ Вниз