ML
     
  Уважаемый Гость!
Вы можете поддержать проект и зарегистрироваться у наших партнеров - онлайн-стратегия MyLands. При регистрации в игре Вы получите код, который сможете активировать после регистрации на pirat.ca и получить 1000 дублонов.

Ваш код:
e6008d9811a0b6a1393c3dc51ecd7bc35637bc21
 
     

Дворняжка Ляля / Сезон: 1,2,3 / Серии: 1-95 из 95 (Дмитрий Гольдман, Екатерина Некрасова, Александр Сальников, ...) [2014 г., мелодрама, WEB-DLRip]

Ответить на тему
 
Автор
Сообщение

Пост 22-Ноя-2015 19:18

[Q] 

aleksejj

Корсар

-Дворняжка Ляля-- Производство: Украина
Жанр: мелодрама
Год выпуска: 2014 г.
Сезон: 1,2,3
Продолжительность: 95 x ~ 00:47:00
Мировая премьера: 18 августа 2014
Режиссер: Дмитрий Гольдман, Екатерина Некрасова, Александр Сальников, ...-В ролях: Александр Попов (IV), Ада Роговцева, Константин Данилюк, Надежда Костюк, Оксана Жданова, Дмитрий Лаленков, Оксана Сташенко, Фёдор Гуринец, Василий Мазур, Светлана Зельбет, Елена Борисова, Елена Ященко, Владимир Мельник, Павел Москаль, Елена Бондарева-Репина-Описание: 17-летней цыганке Ляле Рубиновой очень нужны деньги, поэтому она решает ночью ограбить дом местных богачей Свиридовых. В момент преступления ее застает сын хозяина дома Сергей. Но вместо того, чтобы вызвать полицию, молодой человек предлагает грабительнице… выйти за него замуж. И Ляля соглашается. Но состоится ли свадьба? Это история опасного любовного четырехугольника, из которого, после роковых событий, выбрались, выжили и обрели счастье только два истинно любящих человека.-
Качество видео: WEB-DLRip
Контейнер: AVI
Видео кодек: XviD
Аудио кодек: AC3
Видео: 720x400 (1.80:1), 25 fps, XviD build 73 ~1401 kbps avg, 0.19 bit/pixel
Аудио: 48 kHz, AC3 Dolby Digital, 2/0 (L,R) ch, ~192 kbps
Cубтитры: отсутствуют
Общее
Полное имя : D:\Lialia.2014..WEB-DLRip.[pirat.ca]\01.Lialia.2014..WEB-DLRip..avi
Формат : AVI
Формат/Информация : Audio Video Interleave
Размер файла : 550 Мбайт
Продолжительность : 47 м.
Общий поток : 1604 Кбит/сек
Программа кодирования : VirtualDubMod 1.5.10.3 | www.virtualdub-fr.org || (build 2550/release)
Библиотека кодирования : VirtualDubMod build 2550/release
Видео
Идентификатор : 0
Формат : MPEG-4 Visual
Профиль формата : Advanced [email protected]
Параметр BVOP формата : 1
Параметр QPel формата : Нет
Параметр GMC формата : Без точки перехода
Параметр матрицы формата : Выборочная
Идентификатор кодека : XVID
Идентификатор кодека/Подсказка : XviD
Продолжительность : 47 м.
Битрейт : 1402 Кбит/сек
Ширина : 720 пикселей
Высота : 400 пикселей
Соотношение сторон : 16:9
Частота кадров : 25,000 кадров/сек
Цветовое пространство : YUV
Субдискретизация насыщенности : 4:2:0
Битовая глубина : 8 бит
Тип развёртки : Прогрессивная
Метод сжатия : С потерями
Бит/(Пиксели*Кадры) : 0.195
Размер потока : 481 Мбайт (87%)
Библиотека кодирования : XviD 73
Аудио
Идентификатор : 1
Формат : AC-3
Формат/Информация : Audio Coding 3
Расширение режима : CM (complete main)
Параметр Endianness формата : Big
Идентификатор кодека : 2000
Продолжительность : 47 м.
Вид битрейта : Постоянный
Битрейт : 192 Кбит/сек
Каналы : 2 канала
Расположение каналов : Front: L R
Частота : 48,0 КГц
Битовая глубина : 16 бит
Метод сжатия : С потерями
Размер потока : 65,9 Мбайт (12%)
Выравнивание : Разделение по промежуткам
Продолжительность промежутка : 40 мс. (1,00 видеокадр)
Время предзагрузки промежутка : 500 мс.
Download / Скачать

Хотите скачать бесплатно? Зарегистрируйтесь на сайте (ссылка на регистрацию). Pirat.ca - самый быстрый торрент трекер в рунете!

Как скачивать  ·   Что такое торрент  ·   Рейтинг и ограничения

aleksejj ®

Корсар

5324

Пост 22-Ноя-2015 19:59 (спустя 41 минута)

[Q] 

сравнение =WEB-DLRip= с украинским SATRip
multi-up

_________________
[Профиль]  [ЛС] 
Показать сообщения:    
Ответить на тему

Текущее время: Сегодня 02:02

Часовой пояс: GMT + 4



Вы не можете начинать темы
Вы не можете отвечать на сообщения
Вы не можете редактировать свои сообщения
Вы не можете удалять свои сообщения
Вы не можете голосовать в опросах
Вы не можете прикреплять файлы к сообщениям
Вы не можете скачивать файлы

▼ Вниз