ML
     
  Уважаемый Гость!
Вы можете поддержать проект и зарегистрироваться у наших партнеров - онлайн-стратегия MyLands. При регистрации в игре Вы получите код, который сможете активировать после регистрации на pirat.ca и получить 1000 дублонов.

Ваш код:
e93cd9e43017f251127f220889864c05934e61c6
 
     

Заговоренный / Серии: 1-8 из 8 (Юрий Суходольский) [2015 г., боевик, SATRip]

Ответить на тему
 
Автор
Сообщение

Пост 03-Дек-2015 12:02

[Q] 

cergo

Гроза морей

-ЗаговоренныйСерии: 1-8 из 8--
Производство: Россия, "ВГТРК"
Жанр: боевик
Год выпуска: 2015 г.
Продолжительность: 8 x ~ 00:42:00
Российская премьера: 25 апреля 2015
Режиссер: Юрий Суходольский-В ролях: Сергей Губанов, Игорь Филиппов, Максим Щёголев, Надежда Борисова, Мариэтта Цигаль-Полищук, Александр Лучинин, Анна Соловейчик, Александр Воробьёв (II), Симон Добравец, Виктор Супрун, Александра Каллас-Описание: Капитан разведки ВДВ Андрей Шиков по кличке Шик уволился из рядов Вооруженных Сил и открыл мастерскую по ремонту электронной техники. Шиков воевал в Чечне, на Балканах, и друзья часто называли его «заговоренный» за способность выходить из самых жестоких переделок без единой царапины. Но однажды Шик понял, что эта неуязвимость имеет обратную сторону — его пули прилетают другим. Одновременно с ним увольняется из разведки ВДВ и его боевой товарищ, старший лейтенант Георгий Солдатов по кличке "Густав". Пройдя через иностранный легион и получив французский паспорт на имя Жан-Пьера Жиранда, Солдатов создаёт частную военную корпорацию. Бывшим друзьям предстоит вступить в жестокое столкновение, которое разворачивается на территории России, Болгарии, Сербии и Ливии.-
Качество видео: SATRip
Контейнер: AVI
Видео кодек: XviD
Аудио кодек: AC3
Видео: 720x416 (1.73:1), 25 fps, XviD build 73 ~1542 kbps avg, 0.21 bit/pixel
Аудио: 48 kHz, AC3 Dolby Digital, 2/0 (L,R) ch, ~192 kbps
Cубтитры: отсутствуют
Общее
Полное имя : F:\Кино\Заговоренный.2015.SATRip.avi
Формат : AVI
Формат/Информация : Audio Video Interleave
Размер файла : 531 Мбайт
Продолжительность : 42 м.
Общий поток : 1744 Кбит/сек
Программа кодирования : VirtualDubMod 1.5.10.2 (build 2542/release)
Библиотека кодирования : VirtualDubMod build 2542/release
Видео
Идентификатор : 0
Формат : MPEG-4 Visual
Профиль формата : Advanced [email protected]
Параметр BVOP формата : 1
Параметр QPel формата : Нет
Параметр GMC формата : Без точки перехода
Параметр матрицы формата : Выборочная
Идентификатор кодека : XVID
Идентификатор кодека/Подсказка : XviD
Продолжительность : 42 м.
Битрейт : 1542 Кбит/сек
Ширина : 720 пикселей
Высота : 416 пикселей
Соотношение сторон : 1,731
Частота кадров : 25,000 кадров/сек
Цветовое пространство : YUV
Субдискретизация насыщенности : 4:2:0
Битовая глубина : 8 бит
Тип развёртки : Прогрессивная
Метод сжатия : С потерями
Бит/(Пиксели*Кадры) : 0.206
Размер потока : 469 Мбайт (88%)
Библиотека кодирования : XviD 73
Аудио
Идентификатор : 1
Формат : AC-3
Формат/Информация : Audio Coding 3
Расширение режима : CM (complete main)
Параметр Endianness формата : Big
Идентификатор кодека : 2000
Продолжительность : 42 м.
Вид битрейта : Постоянный
Битрейт : 192 Кбит/сек
Каналы : 2 канала
Расположение каналов : Front: L R
Частота : 48,0 КГц
Битовая глубина : 16 бит
Метод сжатия : С потерями
Размер потока : 58,4 Мбайт (11%)
Выравнивание : Разделение по промежуткам
Продолжительность промежутка : 40 мс. (1,00 видеокадр)
Время предзагрузки промежутка : 500 мс.
Скриншоты
Download / Скачать

Хотите скачать бесплатно? Зарегистрируйтесь на сайте (ссылка на регистрацию). Pirat.ca - самый быстрый торрент трекер в рунете!

Как скачивать  ·   Что такое торрент  ·   Рейтинг и ограничения

Пост 03-Дек-2015 13:31 (спустя 1 час 28 минут)

Топик был перенесен из форума Отечественные сериалы (Трюм) в форум Отечественные сериалы
Андря
 

ZiminY

Гроза морей

3242

Пост 03-Дек-2015 22:15 (спустя 10 часов)

[Q] 

Когда шел по ТВ, смотреть было некогда. Может сейчас осилю... Лови бочку

_________________
[Профиль]  [ЛС] 

alex198408

Морской Волк

Пост 04-Дек-2015 01:49 (спустя 3 часа)

[Q] 

посмотрим, спасибо Автору респект!!!
[Профиль]  [ЛС] 
Показать сообщения:    
Ответить на тему

Текущее время: Сегодня 04:29

Часовой пояс: GMT + 4



Вы не можете начинать темы
Вы не можете отвечать на сообщения
Вы не можете редактировать свои сообщения
Вы не можете удалять свои сообщения
Вы не можете голосовать в опросах
Вы не можете прикреплять файлы к сообщениям
Вы не можете скачивать файлы

▼ Вниз