ML
     
  Уважаемый Гость!
Вы можете поддержать проект и зарегистрироваться у наших партнеров - онлайн-стратегия MyLands. При регистрации в игре Вы получите код, который сможете активировать после регистрации на pirat.ca и получить 1000 дублонов.

Ваш код:
e6008d9811a0b6a1393c3dc51ecd7bc35637bc21
 
     

Белая стрела. Возмездие / Сезон: 2 / Серии: 1-12 из 12 (Алексей Шикин, Александр Строев) [2015 г., Детектив, SATRip]

Ответить на тему
 
Автор
Сообщение

Пост 03-Дек-2015 12:46

[Q] 

cergo

Гроза морей

- Белая стрела. ВозмездиеСерии: 1-12 из 12--
Производство: Россия, 5 канал
Жанр: Детектив
Год выпуска: 2015 г.
Продолжительность: 12 x ~ 00:48:00
Режиссер: Алексей Шикин, Александр Строев-В ролях: Сергей Маховиков, Александр Саюталин, Андрей Аверьянов, Владимир Маслаков, Егор Кутенков, Мария Жиганова, Евгений Ганелин, Ирина Обрезкова, Ирина Основина, Евгений Такс, Никита Яковлев, Николай Солодилов, Виталий Салий, Инна Горбикова, Анастасия Чистякова, Валентина Трухачева, Елена Мартыненко, Дмитрий Гирев, Егор Бакулин, Александр Мосолов, Станислав Мухамадеев, Михаил Бракоренко, Андрей Некрасов, Вячеслав Гумеров-Описание: Главные герои сериала на своей оперативной работе постоянно сталкиваются с несправедливостью. С несправедливостью закона, которому они служат. Уходят от наказания преступники, - убийцы, насильники, грабители, их неотмщённые жертвы вопиют в могилах, выжившие потерпевшие теряют веру в справедливость. Для чего тогда нужна настоящая мужская работа, работа оперативника? Не спать ночами, выслеживать и ловить, рискуя жизнью, негодяев для того, чтобы жиреющие судьи выпускали их на свободу в зале суда? Фемида должна быть беспристрастной, но не слепой! Наши герои по-новому смотрят на своё предназначение. Пусть дверцы клетки правосудия не могут удержать разлетающихся стервятников, - наши герои умеют стрелять и влёт.-
Качество видео: SATRip
Контейнер: AVI
Видео кодек: XviD
Аудио кодек: MP3
Видео: 720x400 (1.80:1), 25 fps, XviD build 50 ~1799 kbps avg, 0.25 bit/pixel
Аудио: 48 kHz, MPEG Layer 3, 2 ch, ~128.00 kbps avg
Cубтитры: отсутствуют
Общее
Полное имя : F:\Кино\Belaja.strela.Vozmezdie.SATRip.avi
Формат : AVI
Формат/Информация : Audio Video Interleave
Размер файла : 661 Мбайт
Продолжительность : 47 м.
Общий поток : 1938 Кбит/сек
Программа кодирования : VirtualDubMod 1.5.10.3 | www.virtualdub-fr.org || (build 2550/release)
Библиотека кодирования : VirtualDubMod build 2550/release
Видео
Идентификатор : 0
Формат : MPEG-4 Visual
Профиль формата : Advanced [email protected]
Параметр BVOP формата : 2
Параметр QPel формата : Нет
Параметр GMC формата : Без точки перехода
Параметр матрицы формата : Default (MPEG)
Идентификатор кодека : XVID
Идентификатор кодека/Подсказка : XviD
Продолжительность : 47 м.
Битрейт : 1800 Кбит/сек
Ширина : 720 пикселей
Высота : 400 пикселей
Соотношение сторон : 16:9
Частота кадров : 25,000 кадров/сек
Цветовое пространство : YUV
Субдискретизация насыщенности : 4:2:0
Битовая глубина : 8 бит
Тип развёртки : Прогрессивная
Метод сжатия : С потерями
Бит/(Пиксели*Кадры) : 0.250
Размер потока : 614 Мбайт (93%)
Библиотека кодирования : XviD 1.2.1 (UTC 2008-12-04)
Аудио
Идентификатор : 1
Формат : MPEG Audio
Версия формата : Version 1
Профиль формата : Layer 3
Режим : Joint stereo
Расширение режима : MS Stereo
Идентификатор кодека : 55
Идентификатор кодека/Подсказка : MP3
Продолжительность : 47 м.
Вид битрейта : Постоянный
Битрейт : 128 Кбит/сек
Каналы : 2 канала
Частота : 48,0 КГц
Метод сжатия : С потерями
Размер потока : 43,6 Мбайт (7%)
Выравнивание : Соединение по промежуткам
Продолжительность промежутка : 40 мс. (1,00 видеокадр)
Время предзагрузки промежутка : 504 мс.
Библиотека кодирования : LAME3.99r
Настройки программы : -m j -V 4 -q 9 -lowpass 17 -b 128
Скриншоты
Download / Скачать

Хотите скачать бесплатно? Зарегистрируйтесь на сайте (ссылка на регистрацию). Pirat.ca - самый быстрый торрент трекер в рунете!

Как скачивать  ·   Что такое торрент  ·   Рейтинг и ограничения

Пост 03-Дек-2015 13:31 (спустя 44 минуты)

Топик был перенесен из форума Отечественные сериалы (Трюм) в форум Отечественные сериалы
Андря
 

Prorok155

Корсар

Пост 03-Дек-2015 14:04 (спустя 1 час 18 минут)

[Q] 

Спасибо. Автору респект!!! Пиратка рулит!
[Профиль]  [ЛС] 

zmaksimz

Корсар

Пост 03-Дек-2015 16:18 (спустя 2 часа 13 минут)

[Q] 

спасибо Всем качать!!!
[Профиль]  [ЛС] 
Показать сообщения:    
Ответить на тему

Текущее время: Сегодня 02:04

Часовой пояс: GMT + 4



Вы не можете начинать темы
Вы не можете отвечать на сообщения
Вы не можете редактировать свои сообщения
Вы не можете удалять свои сообщения
Вы не можете голосовать в опросах
Вы не можете прикреплять файлы к сообщениям
Вы не можете скачивать файлы

▼ Вниз