ML
     
  Уважаемый Гость!
Вы можете поддержать проект и зарегистрироваться у наших партнеров - онлайн-стратегия MyLands. При регистрации в игре Вы получите код, который сможете активировать после регистрации на pirat.ca и получить 1000 дублонов.

Ваш код:
c89b4b6523eaac3173e9a9c062ac1a19db575961
 
     

На глубине / Серии: 1-16 из 16 (Ярослав Мочалов) [2014 г., Криминал, SATRip]

Ответить на тему
 
Автор
Сообщение

Пост 10-Фев-2016 21:08

[Q] 

cergo

Гроза морей

-На глубинеСерии: 1-16 из 16-- Производство: Россия,"Про-Синема продакшн" и "НТВ-Кино" по заказу НТВ
Жанр: Криминал
Год выпуска: 2014 г.
Продолжительность: 16 х ~ 00:45:00
Российская премьера: 25 января 2016
Режиссер: Ярослав Мочалов-В ролях: Алексей Гуськов, Дмитрий Ратомский, Полина Сидихина, Михаил Бабичев, Виктория Герасимова, Игорь Бочкин, Василий Бочкарёв, Сергей Быстрицкий, Алексей Фатеев, Сергей Беляев, Дмитрий Бедерин, Олег Тактаров, Лариса Домаскина, Иван Шмаков, Эдуард Османов, Олег Чевелёв, Игорь Огурцов, Евгения Бордзиловская, Иван Мамонов, Александр Аноприков, Денис Давыдов.-Описание: Сформированное подразделение из резервов полиции работает под прикрытием в глубине преступной сети разрабатывая деятельность особо опасных преступников. Во главе группы стоит человек способный в нужный момент сплотить всех членов команды и в активе которого целый набор инструментов характеризующих его, как целеустремленного и вызывающего безоговорочное доверия со стороны всех, кто его окружает. Сам по себе майор Жур непростой и, как в таких случаях бывает неугодный для начальства. Начальство его терпеть не может за прямоту и зачастую неординарные действия по обезвреживанию бандитов. К себе в команду майор взял троих: Селима Дениса Крылова — и Алову которую буквально «вытащил из-под земли» — раньше она работала в УВД при метрополитене. Отряд должен будет выйти на торговцев оружием, для чего Селиму придется сыграть роль одного из заказчиков. Для успешного расследования дела о похищении людей самому Журу нужно будет «подставиться», чтобы попасть в плен к банде, которая удерживает заложника. Нелегкая роль в одной из операций по поиску наркоторговцев ждет и Алову, до работы в органах сталкивавшуюся с наркозависимостью. А внедрение в банду торговцев алмазами станет непростым испытанием для Дениса из-за дружеских отношений с одним из преступников, пренебречь которыми оказывается не так уж легко ...-
Качество видео: SATRip
Контейнер: AVI
Видео кодек: XviD
Аудио кодек: MP3
Видео: 720x448 (1.61:1), 25 fps, XviD build 50 ~1799 kbps avg, 0.22 bit/pixel
Аудио: 48 kHz, MPEG Layer 3, 2 ch, ~123.38 kbps avg
Cубтитры: отсутствуют
Общее
Полное имя : F:\Кино\Na.glubine.SATRip.avi
Формат : AVI
Формат/Информация : Audio Video Interleave
Размер файла : 619 Мбайт
Продолжительность : 44 м.
Общий поток : 1938 Кбит/сек
Программа кодирования : VirtualDubMod 1.5.10.3 | www.virtualdub-fr.org || (build 2550/release)
Библиотека кодирования : VirtualDubMod build 2550/release
Видео
Идентификатор : 0
Формат : MPEG-4 Visual
Профиль формата : Advanced [email protected]
Параметр BVOP формата : 2
Параметр QPel формата : Нет
Параметр GMC формата : Без точки перехода
Параметр матрицы формата : Default (MPEG)
Идентификатор кодека : XVID
Идентификатор кодека/Подсказка : XviD
Продолжительность : 44 м.
Битрейт : 1800 Кбит/сек
Ширина : 720 пикселей
Высота : 448 пикселей
Соотношение сторон : 16:10
Частота кадров : 25,000 кадров/сек
Цветовое пространство : YUV
Субдискретизация насыщенности : 4:2:0
Битовая глубина : 8 бит
Тип развёртки : Прогрессивная
Метод сжатия : С потерями
Бит/(Пиксели*Кадры) : 0.223
Размер потока : 575 Мбайт (93%)
Библиотека кодирования : XviD 1.2.1 (UTC 2008-12-04)
Аудио
Идентификатор : 1
Формат : MPEG Audio
Версия формата : Version 1
Профиль формата : Layer 3
Режим : Joint stereo
Идентификатор кодека : 55
Идентификатор кодека/Подсказка : MP3
Продолжительность : 44 м.
Вид битрейта : Постоянный
Битрейт : 128 Кбит/сек
Каналы : 2 канала
Частота : 48,0 КГц
Метод сжатия : С потерями
Размер потока : 40,9 Мбайт (7%)
Выравнивание : Соединение по промежуткам
Продолжительность промежутка : 40 мс. (1,00 видеокадр)
Время предзагрузки промежутка : 504 мс.
Библиотека кодирования : LAME3.99r
Настройки программы : -m j -V 4 -q 9 -lowpass 17 -b 128
Скриншоты
-
-
Download / Скачать

Хотите скачать бесплатно? Зарегистрируйтесь на сайте (ссылка на регистрацию). Pirat.ca - самый быстрый торрент трекер в рунете!

Как скачивать  ·   Что такое торрент  ·   Рейтинг и ограничения

ss80

Флибустьер

36

Пост 10-Фев-2016 21:26 (спустя 17 минут)

[Q] 

Спасибо!!!
[Профиль]  [ЛС] 

Пост 11-Фев-2016 09:42 (спустя 12 часов)

Топик был перенесен из форума Отечественные сериалы (Трюм) в форум Отечественные сериалы
Андря
 

Prorok155

Корсар

Пост 11-Фев-2016 09:54 (спустя 12 часов)

[Q] 

Спасибо. Автору респект!!! Лови бочку
[Профиль]  [ЛС] 

alex11959

Флибустьер

Пост 11-Фев-2016 17:35 (спустя 7 часов)

[Q] 

!!!!!!!!!!!!!!!!!!!!!!!!!!!!!!!!!!!
[Профиль]  [ЛС] 

Alexlogin

Гроза морей

105

Пост 11-Фев-2016 19:08 (спустя 1 час 33 минуты)

[Q] 

Спасибо забираем
[Профиль]  [ЛС] 

ZiminY

Гроза морей

3243

Пост 13-Фев-2016 09:44 (спустя 1 день 14 часов)

[Q] 

Спасибо, ждал.

_________________
[Профиль]  [ЛС] 
Показать сообщения:    
Ответить на тему

Текущее время: Сегодня 22:33

Часовой пояс: GMT + 4



Вы не можете начинать темы
Вы не можете отвечать на сообщения
Вы не можете редактировать свои сообщения
Вы не можете удалять свои сообщения
Вы не можете голосовать в опросах
Вы не можете прикреплять файлы к сообщениям
Вы не можете скачивать файлы

▼ Вниз