ML
     
  Уважаемый Гость!
Вы можете поддержать проект и зарегистрироваться у наших партнеров - онлайн-стратегия MyLands. При регистрации в игре Вы получите код, который сможете активировать после регистрации на pirat.ca и получить 1000 дублонов.

Ваш код:
cc3be08b7507661c03e0a2f582d0da3a659ea55a
 
     

Офицеры 2 (Серии 1-8 из 8и)(Зиновий Ройзман) [2009 г., Боевик, DVDRip]

Ответить на тему
 
Автор
Сообщение

Пост 10-Мар-2016 14:32

[Q] 

Боцман

________________________________________________________________Офицеры 2Серии 1-8 из 8________________________________________________________________ Год выпуска: 2009
Производство: Россия
Жанр: Боевик
Продолжительность: 8 серий x 50 минут
Перевод: Не требуется-Режиссер: Зиновий Ройзман-В ролях: Сергей Горобченко, Алексей Макаров, Даниил Спиваковский, Екатерина Вуличенко, Михаил Жигалов, Борис Химичев, Анастасия Макеева, Алла Ковнир, Равшана Куркова, Юрий Пономаренко
Описание: Продолжение рейтингового сериала о высокопрофессиональных работниках спецслужб, чей долг оказываться в самых горячих военных точках и справляться с самыми серьезными секретными заданиями. Наше время — лучших друзей и напарников Осоргина и Гайдамака вновь ждут головокружительные приключения. И как всегда у наших героев или «все будет хорошо», или «все будет плохо…»--Качество: DVDRip
Формат: AVI
Видео кодек: XviD
Аудио кодек: MP3
Видео: XviD, 672x384, 25 frames/s, 1364 kb/s
Аудио:MPEG-1 Layer 3, 48000Hz, 128 kb/s, Joint Stereo
Общее
Полное имя : F:\Отечественные сериалы\Офицеры 2 (Все 8 серий) DVDRip\Офицеры 2 (Все 8 серий) DVDRip.avi
Формат : AVI
Формат/Информация : Audio Video Interleave
Профиль формата : OpenDML
Размер файла : 4,24 Гбайт
Продолжительность : 6 ч. 47 м.
Общий поток : 1490 Кбит/сек
Видео
Идентификатор : 0
Формат : MPEG-4 Visual
Профиль формата : Advanced [email protected]
Параметр BVOP формата : 1
Параметр QPel формата : Нет
Параметр GMC формата : Без точки перехода
Параметр матрицы формата : Выборочная
Идентификатор кодека : XVID
Идентификатор кодека/Подсказка : XviD
Продолжительность : 6 ч. 47 м.
Битрейт : 1354 Кбит/сек
Ширина : 672 пикселя
Высота : 384 пикселя
Соотношение сторон : 16:9
Частота кадров : 25,000 кадров/сек
Цветовое пространство : YUV
Субдискретизация насыщенности : 4:2:0
Битовая глубина : 8 бит
Тип развёртки : Прогрессивная
Метод сжатия : С потерями
Бит/(Пиксели*Кадры) : 0.210
Размер потока : 3,85 Гбайт (91%)
Библиотека кодирования : XviD 1.2.1 (UTC 2008-12-04)
Аудио
Идентификатор : 1
Формат : MPEG Audio
Версия формата : Version 1
Профиль формата : Layer 3
Режим : Joint stereo
Идентификатор кодека : 55
Идентификатор кодека/Подсказка : MP3
Продолжительность : 6 ч. 47 м.
Вид битрейта : Постоянный
Битрейт : 128 Кбит/сек
Каналы : 2 канала
Частота : 48,0 КГц
Метод сжатия : С потерями
Размер потока : 373 Мбайт (9%)
Выравнивание : Соединение по промежуткам
Продолжительность промежутка : 40 мс. (1,00 видеокадр)
Время предзагрузки промежутка : 504 мс.
Библиотека кодирования : LAME3.98r
Настройки программы : -m j -V 4 -q 2 -lowpass 17 -b 128






Download / Скачать

Хотите скачать бесплатно? Зарегистрируйтесь на сайте (ссылка на регистрацию). Pirat.ca - самый быстрый торрент трекер в рунете!

Как скачивать  ·   Что такое торрент  ·   Рейтинг и ограничения

Пост 10-Мар-2016 22:48 (спустя 8 часов)

Топик был перенесен из форума Отечественные сериалы (Трюм) в форум Отечественные сериалы
Андря
 

Purshun

Корсар

115

Пост 21-Мар-2016 11:15 (спустя 10 дней)

[Q] 

Спасибо Боцман!
Лови бочку

_________________
[Профиль]  [ЛС] 
Показать сообщения:    
Ответить на тему

Текущее время: Сегодня 05:07

Часовой пояс: GMT + 4



Вы не можете начинать темы
Вы не можете отвечать на сообщения
Вы не можете редактировать свои сообщения
Вы не можете удалять свои сообщения
Вы не можете голосовать в опросах
Вы не можете прикреплять файлы к сообщениям
Вы не можете скачивать файлы

▼ Вниз