ML
     
  Уважаемый Гость!
Вы можете поддержать проект и зарегистрироваться у наших партнеров - онлайн-стратегия MyLands. При регистрации в игре Вы получите код, который сможете активировать после регистрации на pirat.ca и получить 1000 дублонов.

Ваш код:
73640f24f8a0f579e128ea7346fd2db2b1009143
 
     

Последний мент / Сезон: 2 / Серии: 1-8 из 15 (Михаил Жерневский) [2015 г., криминал, боевик, комедия, WEB-DLRip]

Ответить на тему
 
Автор
Сообщение

Пост 19-Мар-2016 20:26

[Q] 

Сумрак

-ПОСЛЕДНИЙ МЕНТ 2-- Производство: Россия, 5-й канал Петербург
Жанр: криминал, боевик, комедия
Год выпуска: 2015 г.
Продолжительность: 00:40:00
Режиссер: Михаил Жерневский-В ролях: Гоша Куценко, Наталия Вдовина, Анатолий Руденко, Виктория Корлякова, Полина Куценко, Сергей Удовик, Александр Борисов (II), Лукерья Ильяшенко, Ксения Ефремова, Вероника Айги, Лада Негруль, Сергей Фролов (IV)-Описание: Капитан милиции Алексей Дивов открывает глаза на больничной койке и узнает, что полученное на задании ранение уложило его в кому… на 20 лет. С 1995-года мир изменился. Милиция стала полицией, рэкет, «крыши», «стрелки» и братки остались в прошлом, в продаже нет спирта «Рояль», вокруг сенсорные телефоны с выходом в Интернет, молодые опера борются с преступностью с помощью современных гаджетов, а в обеденный перерыв могут перекусить какими-то роллами и суши с помощью «барабанных палочек». Дочь Юля выросла, а жена Лиза замужем за другим.-Качество видео: WEB-DLRip
Контейнер: AVI
Видео кодек: DivX
Аудио кодек: AC3
Видео: 720x400 (1.80:1), 25 fps, XviD build 73 ~1548 kbps avg, 0.22 bit/pixel
Аудио: 48 kHz, AC3 Dolby Digital, 2/0 (L,R) ch, ~192.00 kbps avg
Format : AVI
Format/Info : Audio Video Interleave
File size : 500 MiB
Duration : 37mn 48s
Overall bit rate : 1 848 Kbps
Writing application : VirtualDubMod 1.5.10.3 | www.virtualdub-fr.org || (build 2550/release)
Writing library : VirtualDubMod build 2550/release
Video
ID : 0
Format : MPEG-4 Visual
Format profile : Advanced [email protected]
Format settings, BVOP : 1
Format settings, QPel : No
Format settings, GMC : No warppoints
Format settings, Matrix : Custom
Codec ID : XVID
Codec ID/Hint : XviD
Duration : 37mn 48s
Bit rate : 1 647 Kbps
Width : 720 pixels
Height : 400 pixels
Display aspect ratio : 16:9
Frame rate : 25.000 fps
Color space : YUV
Chroma subsampling : 4:2:0
Bit depth : 8 bits
Scan type : Progressive
Compression mode : Lossy
Bits/(Pixel*Frame) : 0.229
Stream size : 445 MiB (89%)
Writing library : XviD 73
Audio
ID : 1
Format : AC-3
Format/Info : Audio Coding 3
Mode extension : CM (complete main)
Format settings, Endianness : Big
Codec ID : 2000
Duration : 37mn 48s
Bit rate mode : Constant
Bit rate : 192 Kbps
Channel(s) : 2 channels
Channel positions : Front: L R
Sampling rate : 48.0 KHz
Frame rate : 31.250 fps (1536 spf)
Compression mode : Lossy
Stream size : 51.9 MiB (10%)
Alignment : Split accross interleaves
Interleave, duration : 40 ms (1.00 video frame)
Interleave, preload duratio : 500 ms
Download / Скачать

Хотите скачать бесплатно? Зарегистрируйтесь на сайте (ссылка на регистрацию). Pirat.ca - самый быстрый торрент трекер в рунете!

Как скачивать  ·   Что такое торрент  ·   Рейтинг и ограничения



Последний раз редактировалось: Сумрак (2016-03-26 12:01), всего редактировалось 2 раз(а)

Сумрак ®

1660

Пост 19-Мар-2016 20:28 (спустя 1 минута)

[Q] 

НУ вот вышел и 2 сезон приятного просмотра !

_________________
[Профиль]  [ЛС] 

Пост 19-Мар-2016 23:08 (спустя 2 часа 39 минут)

Топик был перенесен из форума Отечественные сериалы (Трюм) в форум Отечественные сериалы
Андря
 

Сумрак ®

1660

Пост 24-Мар-2016 23:59 (спустя 5 дней)

[Q] 

Завтра постараюсь выложить еще пару серий ))), если что пинайте - но не сильно be

_________________
[Профиль]  [ЛС] 

Сумрак ®

1660

Пост 26-Мар-2016 14:15 (спустя 1 день 14 часов)

[Q] 

Добавил с 5 по 8 серию!
Добавлено спустя 2 часа 11 минут 44 секунды:
Вышла 9 но скину чуть позже ( кстати прикольная 8 серия все таки барменша соблазнила :)

_________________
[Профиль]  [ЛС] 

platon18

Гроза морей

Пост 05-Май-2016 13:21 (спустя 1 месяц 9 дней)

[Q] 

серий не 15 а 24, уже есть все на рутрекере
[Профиль]  [ЛС] 

Сумрак ®

1660

Пост 15-Май-2016 10:47 (спустя 9 дней)

[Q] 

я в курсе они у меня были и есть раньше - но нет времени этим занятся

_________________
[Профиль]  [ЛС] 
Показать сообщения:    
Ответить на тему

Текущее время: Сегодня 22:37

Часовой пояс: GMT + 4



Вы не можете начинать темы
Вы не можете отвечать на сообщения
Вы не можете редактировать свои сообщения
Вы не можете удалять свои сообщения
Вы не можете голосовать в опросах
Вы не можете прикреплять файлы к сообщениям
Вы не можете скачивать файлы

▼ Вниз