ML
     
  Уважаемый Гость!
Вы можете поддержать проект и зарегистрироваться у наших партнеров - онлайн-стратегия MyLands. При регистрации в игре Вы получите код, который сможете активировать после регистрации на pirat.ca и получить 1000 дублонов.

Ваш код:
a6d1ef7ff63e237add5a4c8b21d8aa937c5e9b4b
 
     

Алмазы Сталина / Серии: 1-4 из 4 (Борис Казаков) [2016 г., История, драма, SATRip]

Ответить на тему
 
Автор
Сообщение

Пост 20-Мар-2016 17:46

[Q] 

cergo

Гроза морей

-Алмазы СталинаСерии: 1-4 из 4--
Производство: Россия
Жанр: История, драма
Год выпуска: 2016 г.
Продолжительность: 4 x ~ 00:45:00
Режиссер: Борис Казаков-В ролях: Юрий Стоянов, Алексей Шевченков, Андрей Фролов (II), Дмитрий Ермак, Анна Банщикова, Константин Желдин, Елена Шилова (II), Юрий Нифонтов, Олег Васильков, Николай Шатохин, Антон Колесников, Дмитрий Гусев, Александр Вонтов, Сергей Цепов, Владимир Гусев (II), Сергей Насибов, Геннадий Яковлев-Описание: Сюжетных линий в фильме несколько. С одной стороны — это Ялтинская конференция 1945 года, на которой присутствуют Иосиф Сталин, Уинстон Черчилль и Франклин Рузвельт. В исторической параллели — XVII век, Иван Мазепа и Кирилл Разумовский на Крестовоздвиженском прииске (впоследствии Молотовской области) в заключении ищут алмазы. Именно об этих камнях заходит речь на конференции. Третья линия — любовная история двух друзей-военных и молодой девушки.-
Качество видео: SATRip
Контейнер: AVI
Видео кодек: XviD
Аудио кодек: MP3
Видео: 720x384 (1.88:1), 25 fps, XviD build 50 ~1620 kbps avg, 0.23 bit/pixel
Аудио: 48 kHz, MPEG Layer 3, 2 ch, ~128.00 kbps avg
Cубтитры: отсутствуют
Общее
Полное имя : D:\Архив\Фильмы\Almazy.Stalina.SATRip.avi
Формат : AVI
Формат/Информация : Audio Video Interleave
Размер файла : 589 Мбайт
Продолжительность : 46 м.
Общий поток : 1758 Кбит/сек
Библиотека кодирования : VirtualDub build 35453/release
Видео
Идентификатор : 0
Формат : MPEG-4 Visual
Профиль формата : Advanced [email protected]
Параметр BVOP формата : 2
Параметр QPel формата : Нет
Параметр GMC формата : Без точки перехода
Параметр матрицы формата : Default (H.263)
Идентификатор кодека : XVID
Идентификатор кодека/Подсказка : XviD
Продолжительность : 46 м.
Битрейт : 1620 Кбит/сек
Ширина : 720 пикселей
Высота : 384 пикселя
Соотношение сторон : 1,85:1
Частота кадров : 25,000 кадров/сек
Цветовое пространство : YUV
Субдискретизация насыщенности : 4:2:0
Битовая глубина : 8 бит
Тип развёртки : Прогрессивная
Метод сжатия : С потерями
Бит/(Пиксели*Кадры) : 0.234
Размер потока : 543 Мбайт (92%)
Библиотека кодирования : XviD 1.2.1 (UTC 2008-12-04)
Аудио
Идентификатор : 1
Формат : MPEG Audio
Версия формата : Version 1
Профиль формата : Layer 3
Режим : Joint stereo
Расширение режима : MS Stereo
Идентификатор кодека : 55
Идентификатор кодека/Подсказка : MP3
Продолжительность : 46 м.
Вид битрейта : Постоянный
Битрейт : 128 Кбит/сек
Каналы : 2 канала
Частота : 48,0 КГц
Метод сжатия : С потерями
Задержка видео : 8 мс.
Размер потока : 42,9 Мбайт (7%)
Выравнивание : Разделение по промежуткам
Продолжительность промежутка : 40 мс. (1,00 видеокадр)
Время предзагрузки промежутка : 500 мс.
Присутствует единичная (на сколько мне известно) реклама - одна звуковая и одна субтитры на серию. Видеовставки (реклама) вырезал.
Скриншоты:
Download / Скачать

Хотите скачать бесплатно? Зарегистрируйтесь на сайте (ссылка на регистрацию). Pirat.ca - самый быстрый торрент трекер в рунете!

Как скачивать  ·   Что такое торрент  ·   Рейтинг и ограничения

Пост 20-Мар-2016 19:41 (спустя 1 час 54 минуты)

Топик был перенесен из форума Отечественные сериалы (Трюм) в форум Отечественные сериалы
Андря
 

plistikanatolii

Морской Волк

Пост 21-Мар-2016 09:17 (спустя 15 часов)

[Q] 

спасибо.заценим сие творение
[Профиль]  [ЛС] 

Drummer901

Штурман

Пост 21-Мар-2016 16:08 (спустя 6 часов)

[Q] 

заценил... концовки серий оборваны.... особенно неприятен обрыв последней серии...
[Профиль]  [ЛС] 

Oksika

Флибустьер

Пост 22-Мар-2016 15:36 (спустя 23 часа)

[Q] 

Опаньки! А зачем-же концовки серий отрезать? А так хотелось скачать.
[Профиль]  [ЛС] 
Показать сообщения:    
Ответить на тему

Текущее время: Сегодня 13:31

Часовой пояс: GMT + 4



Вы не можете начинать темы
Вы не можете отвечать на сообщения
Вы не можете редактировать свои сообщения
Вы не можете удалять свои сообщения
Вы не можете голосовать в опросах
Вы не можете прикреплять файлы к сообщениям
Вы не можете скачивать файлы

▼ Вниз