ML
     
  Уважаемый Гость!
Вы можете поддержать проект и зарегистрироваться у наших партнеров - онлайн-стратегия MyLands. При регистрации в игре Вы получите код, который сможете активировать после регистрации на pirat.ca и получить 1000 дублонов.

Ваш код:
500cb7bd8d2cec9a8aba647a87ce41c4b76f06bd
 
     

Родина ждёт / Сезон: 1 из 1 / Серии: 1-6 из 6 (Олег Погодин) [2003 г., Шпионский боевик, DVDRip]

Ответить на тему
 
Автор
Сообщение

Пост 26-Мар-2016 23:49

[Q] 

somik

Легенда

-Родина ждёт-- Производство: Россия, Централ Партнершип
Жанр: Шпионский боевик
Год выпуска: 2003 г.
Продолжительность: 00:50:15
Российская премьера: 24 ноября 2003
Дата выхода DVD: 10 декабря 2003, «CP-Digital»
Режиссер: Олег Погодин-В ролях: Валерий Николаев, Юрий Соломин, Мария Кивва, Владимир Турчинский, Дмитрий Дюжев, Павел Деревянко, Игорь Ливанов, Сергей Никоненко, Убайдулла Аман, Рустам Уразаев, Лев Прыгунов, Фатих Джалолов, Теша Муминов, Бахтияр Закиров, Али Чориев, Фируз Сабзалиев, Шамси Йуллиев, Василий Мищенко, Сергей Лесогоров, Наталья Бортникова, Адель Аль-Хадад, Садык Мурадов, Юрий Карасик, Олег Штефанко, Ходжадурды Нарлиев, Екатерина Вуличенко, Сергей Устинов (II), Наталья Барсукова, Абдураим Вахобов, Сергей Генкин, Носир Муинов, Тагир Рахимов-Описание: Увлекательный шпионский боевик о буднях российского разведчика за рубежом. В одну из ближневосточных стран нефтяного бассейна под видом журналиста-международника приезжает разведчик Виктор Быстролетов. Его цель - установить контакт с бывшим террористом по имени Джавад. Вот уже несколько лет как этот активист священной войны отошел от дел и скрылся в неизвестном направлении. С тех пор его разыскивают не только спецподразделения Интерпола, но и собратья по оружию, которые приговорили своего бывшего соратника к смерти, потому что считают Джавада клятвопреступником...-
Качество видео: DVDRip
Контейнер: AVI
Видео кодек: XviD
Аудио кодек: AC3
Видео: Video: 704x432 (1.63:1), 29.970 fps, XviD build 47 ~1008 kbps avg, 0.11 bit/pixel
Аудио: Audio: 48 kHz, AC3 Dolby Digital, 3/2 (L,C,R,l,r) + LFE ch, ~448 kbps
Cубтитры: отсутствуют
Родина ждёт — российский телесериал 2003 года (общая продолжительность — 312 мин).
Шпионский боевик о буднях российского разведчика за рубежом. Ближний Восток. В одну из стран нефтяного бассейна под видом журналиста-международника приезжает разведчик Виктор Быстролётов. Его цель — установить контакт с бывшим террористом по имени Джавад. Вот уже несколько лет, как Джавад отошёл от дел и скрылся в неизвестном направлении…
Съёмочная группа:
Режиссёр — Олег Погодин
Сценарист — Олег Погодин
Продюсер — Рубен Дишдишян
Композитор — Александр Соколов
Оператор-постановщик — Дмитрий Яшонков
Художник — Денис Куприн (он также снялся в эпизоде)
Производство: Централ Партнершип.
Другое название фильма — «Невыполнимое задание».
На удивление качественно!
Этот сериал посмотрела ещё в школе, но и сейчас производит позитивное впечатление. И прежде всего тем, что по максимуму использован клиповый монтаж для создания динамизма всему действию. В отношении всего остального можно сказать, что выполнено на уровне, но не более. В итоге это действительно очень хороший экшн в виде сериала с небольшой долей иронии над фильмами про разведку.
8 из 10
Формат : AVI
Формат/Информация : Audio Video Interleave
Размер файла : 551 Мбайт
Продолжительность : 52 м.
Общий поток : 1455 Кбит/сек
Программа кодирования : VirtualDubMod 1.5.4.1 (build 2178/release)
Библиотека кодирования : VirtualDubMod build 2178/release
Видео
Идентификатор : 0
Формат : MPEG-4 Visual
Профиль формата : Advanced [email protected]
Параметр BVOP формата : 1
Параметр QPel формата : Нет
Параметр GMC формата : Без точки перехода
Параметр матрицы формата : Выборочная
Идентификатор кодека : XVID
Идентификатор кодека/Подсказка : XviD
Продолжительность : 52 м.
Битрейт : 1008 Кбит/сек
Ширина : 704 пикселя
Высота : 432 пикселя
Соотношение сторон : 16:10
Частота кадров : 29,970 (29970/1000) кадров/сек
Цветовое пространство : YUV
Субдискретизация насыщенности : 4:2:0
Битовая глубина : 8 бит
Тип развёртки : Прогрессивная
Метод сжатия : С потерями
Бит/(Пиксели*Кадры) : 0.111
Размер потока : 381 Мбайт (69%)
Библиотека кодирования : XviD 1.2.0.dev47 (UTC 2006-11-01)
Аудио
Идентификатор : 1
Формат : AC-3
Формат/Информация : Audio Coding 3
Расширение режима : CM (complete main)
Параметр Endianness формата : Big
Идентификатор кодека : 2000
Продолжительность : 51 м.
Вид битрейта : Постоянный
Битрейт : 448 Кбит/сек
Каналы : 6 каналов
Расположение каналов : Front: L C R, Side: L R, LFE
Частота : 48,0 КГц
Частота кадров : 31,250 кадров/сек (1536 spf)
Метод сжатия : С потерями
Размер потока : 167 Мбайт (30%)
Выравнивание : Разделение по промежуткам
Продолжительность промежутка : 98 мс. (2,93 видеокадра)
Время предзагрузки промежутка : 96 мс.
Язык : Russian
Download / Скачать

Хотите скачать бесплатно? Зарегистрируйтесь на сайте (ссылка на регистрацию). Pirat.ca - самый быстрый торрент трекер в рунете!

Как скачивать  ·   Что такое торрент  ·   Рейтинг и ограничения

somik ®

Легенда

26839

Пост 27-Мар-2016 00:04 (спустя 15 минут)

[Q] 

Ребята, извините за качество. Будем считать, в ознакомительных целях... Кстати, DVD, кажется с TVRipa снимался. aa На любителя

_________________
Всё когда-нибудь уже было... В интернете!
[Профиль]  [ЛС] 

Prorok155

Корсар

Пост 27-Мар-2016 09:04 (спустя 8 часов)

[Q] 

Спасибо.Помогу с раздачей.
[Профиль]  [ЛС] 

ktest0

Корсар

33

Пост 27-Мар-2016 20:11 (спустя 11 часов)

[Q] 

rum
[Профиль]  [ЛС] 

Voldemartop

Легенда

1547

Пост 27-Мар-2016 22:07 (спустя 1 час 55 минут)

[Q] 

Благо Дарю somik!!!
Автору респект!!! Лови бочку

_________________


МОИ РАЗДАЧИ
[Профиль]  [ЛС] 
Показать сообщения:    
Ответить на тему

Текущее время: Сегодня 01:51

Часовой пояс: GMT + 4



Вы не можете начинать темы
Вы не можете отвечать на сообщения
Вы не можете редактировать свои сообщения
Вы не можете удалять свои сообщения
Вы не можете голосовать в опросах
Вы не можете прикреплять файлы к сообщениям
Вы не можете скачивать файлы

▼ Вниз