ML
     
  Уважаемый Гость!
Вы можете поддержать проект и зарегистрироваться у наших партнеров - онлайн-стратегия MyLands. При регистрации в игре Вы получите код, который сможете активировать после регистрации на pirat.ca и получить 1000 дублонов.

Ваш код:
47bfc18b89c74e4ae0d974e9b6943639e2bff08e
 
     

Маргарита Назарова / Margarita Nazarova / Сезон: 1 / Серии: 1-16 из 16 (Константин Максимов) [2016 г., биография, драма, WEB-DLRip]

Ответить на тему
 
Автор
Сообщение

Пост 25-Апр-2016 20:58

[Q] 

somik

Легенда

-Маргарита Назарова / Margarita Nazarova-- Производство: Россия, ОДА-Фильм
Жанр: биография, драма
Год выпуска: 2016 г.
Продолжительность: 00:50:00
Российская премьера: 18 апреля 2016
Перевод: Не требуется
Режиссер: Константин Максимов-В ролях: Ольга Погодина, Андрей Чернышов, Наталья Панова, Александр Песков, Владимир Качан, Маркус Кунце, Ирина Ильинская, Георгий Кульков, Пётр Романов, Валентина Кошкина, Валентин Валл, Иван Иванов, Арина Иванова, Виктор Конухин, Екатерина Мышлянова, Эльдар Трамов, Игорь Штернберг, Михаил Станкевич, Николай Скурт-Описание: Художественный фильм о легендарной дрессировщице и актрисе Маргарите Назаровой, которая прошла путь от жизни в немецком плену и презрения со стороны окружения до всемирно известной дрессировщицы и актрисы. Жизненный путь Маргариты Назаровой не был простым и лёгким. Встречались и недруги, и завистники, но не обошла стороной любовь и верные друзья. Её жизнь — ЧУДО, которое Маргарита Назарова подарила всем нам… Это чудо: её роли, её аттракционы, её любовь… к цирку, к мужу, к Родине…-
Качество видео: WEB-DLRip
Контейнер: AVI
Видео кодек: XviD
Аудио кодек: AC3
Видео: 720x400 (1.80:1), 25 fps, XviD build 73 ~1406 kbps avg, 0.20 bit/pixel
Аудио: 48 kHz, AC3 Dolby Digital, 2/0 (L,R) ch, ~192 kbps
Cубтитры: отсутствуют
Формат : AVI
Формат/Информация : Audio Video Interleave
Размер файла : 601 Мбайт
Продолжительность : 52 м.
Общий поток : 1608 Кбит/сек
Название фильма : 01.Margarita Nazarova.2016.WEB-DLRip.[pirat.ca]
Программа кодирования : VirtualDubMod 1.5.10.3 | www.virtualdub-fr.org || (build 2550/release)
Видео
Идентификатор : 0
Формат : MPEG-4 Visual
Профиль формата : Advanced [email protected]
Параметр BVOP формата : 1
Параметр QPel формата : Нет
Параметр GMC формата : Без точки перехода
Параметр матрицы формата : Выборочная
Идентификатор кодека : XVID
Идентификатор кодека/Подсказка : XviD
Продолжительность : 52 м.
Битрейт : 1406 Кбит/сек
Ширина : 720 пикселей
Высота : 400 пикселей
Соотношение сторон : 16:9
Частота кадров : 25,000 кадров/сек
Цветовое пространство : YUV
Субдискретизация насыщенности : 4:2:0
Битовая глубина : 8 бит
Тип развёртки : Прогрессивная
Метод сжатия : С потерями
Бит/(Пиксели*Кадры) : 0.195
Размер потока : 525 Мбайт (87%)
Библиотека кодирования : XviD 73
Аудио
Идентификатор : 1
Формат : AC-3
Формат/Информация : Audio Coding 3
Расширение режима : CM (complete main)
Параметр Endianness формата : Big
Идентификатор кодека : 2000
Продолжительность : 52 м.
Вид битрейта : Постоянный
Битрейт : 192 Кбит/сек
Каналы : 2 канала
Расположение каналов : Front: L R
Частота : 48,0 КГц
Частота кадров : 31,250 кадров/сек (1536 spf)
Метод сжатия : С потерями
Размер потока : 71,7 Мбайт (12%)
Выравнивание : Разделение по промежуткам
Продолжительность промежутка : 40 мс. (1,00 видеокадр)
Время предзагрузки промежутка : 500 мс.
Download / Скачать

Хотите скачать бесплатно? Зарегистрируйтесь на сайте (ссылка на регистрацию). Pirat.ca - самый быстрый торрент трекер в рунете!

Как скачивать  ·   Что такое торрент  ·   Рейтинг и ограничения

Дядя Витя

53946

Пост 25-Апр-2016 21:19 (спустя 21 минута)

[Q] 

Свеженькое, российское кино...
Раздающему респект!

_________________
?
[Профиль]  [ЛС] 

somik ®

Легенда

27095

Пост 25-Апр-2016 21:45 (спустя 25 минут)

[Q] 

Всегда восхищался этой парой: такое кино как "Полосатый рейс" и "Укротительница тигров" не смогли снять в Голливуде!

_________________
Всё когда-нибудь уже было... В интернете!
[Профиль]  [ЛС] 
Показать сообщения:    
Ответить на тему

Текущее время: Сегодня 07:04

Часовой пояс: GMT + 4



Вы не можете начинать темы
Вы не можете отвечать на сообщения
Вы не можете редактировать свои сообщения
Вы не можете удалять свои сообщения
Вы не можете голосовать в опросах
Вы не можете прикреплять файлы к сообщениям
Вы не можете скачивать файлы

▼ Вниз