ML
     
  Уважаемый Гость!
Вы можете поддержать проект и зарегистрироваться у наших партнеров - онлайн-стратегия MyLands. При регистрации в игре Вы получите код, который сможете активировать после регистрации на pirat.ca и получить 1000 дублонов.

Ваш код:
db0e0ad91548759ffeb9bb88bed405e1a4b3c165
 
     

Под каблуком / Сезон: 1 / Серии: 1-8 из 8 (Александр Кириенко) [2014 г., комедия, мелодрама, WEB-DLRip]

Ответить на тему
 
Автор
Сообщение

Пост 04-Май-2016 17:06

[Q] 

somik

Легенда

-Под каблуком-- Производство: Россия, Марс Медиа Энтертейнмент, Пантократор
Жанр: комедия, мелодрама
Год выпуска: 2014 г.
Продолжительность: 00:50:00
Российская премьера: 24 декабря 2014
Режиссер: Александр Кириенко-В ролях: Илья Любимов, Татьяна Федоровская, Кристина Пакарина, Ольга Волкова, Екатерина Приморская, Екатерина Вуличенко, Наталья Романычева, Софья Хилькова, Олег Мазуров, Олег Алмазов, Игорь Скрипко, Анастасия Шалонько-Описание: Жизнь рекламщика Кости выглядит успешной: его работа приносит доход и удовлетворение, любимая женщина согласилась выйти замуж. Но все рушится в один момент: отец Кости умирает, и на его руках оказывается не только семейное дело — фирма-производитель женской обуви, но и беспомощные родственницы, привыкшие к тому, что их проблемы решает глава семейства.
Сам Костя не может назвать себя патриархом. Своей невесте Соне и дочке Марусе он уделяет мало времени, с мамой общается мало, и еще меньше — с дочкой от первого брака Алисой и ее мамой Верой. Семейным делом он не интересуется и в дела фирмы не вникает. Но благодаря семейной трагедии Костя наконец-то взрослеет и становится настоящим мужчиной. Он уже не плывет по течению, а находит в себе силы встать у руля и в финале становится настоящей опорой для всех своих женщин.-
Качество видео: WEB-DLRip
Контейнер: AVI
Видео кодек: XviD
Аудио кодек: AC3
Видео: 720x400 (1.80:1), 25 fps, XviD build 73 ~1799 kbps avg, 0.25 bit/pixel
Аудио: 48 kHz, AC3 Dolby Digital, 2/0 (L,R) ch, ~192 kbps
Cубтитры: отсутствуют
Формат : AVI
Формат/Информация : Audio Video Interleave
Размер файла : 714 Мбайт
Продолжительность : 49 м.
Общий поток : 2002 Кбит/сек
Название фильма : Под каблуком - 01 серия.[pirat.ca]
Программа кодирования : VirtualDubMod 1.5.10.3 | www.virtualdub-fr.org || (build 2550/release)
Видео
Идентификатор : 0
Формат : MPEG-4 Visual
Профиль формата : Advanced [email protected]
Параметр BVOP формата : 1
Параметр QPel формата : Нет
Параметр GMC формата : Без точки перехода
Параметр матрицы формата : Default (MPEG)
Идентификатор кодека : XVID
Идентификатор кодека/Подсказка : XviD
Продолжительность : 49 м.
Битрейт : 1800 Кбит/сек
Ширина : 720 пикселей
Высота : 400 пикселей
Соотношение сторон : 16:9
Частота кадров : 25,000 кадров/сек
Цветовое пространство : YUV
Субдискретизация насыщенности : 4:2:0
Битовая глубина : 8 бит
Тип развёртки : Прогрессивная
Метод сжатия : С потерями
Бит/(Пиксели*Кадры) : 0.250
Размер потока : 642 Мбайт (90%)
Библиотека кодирования : XviD 73
Аудио
Идентификатор : 1
Формат : AC-3
Формат/Информация : Audio Coding 3
Расширение режима : CM (complete main)
Параметр Endianness формата : Big
Идентификатор кодека : 2000
Продолжительность : 49 м.
Вид битрейта : Постоянный
Битрейт : 192 Кбит/сек
Каналы : 2 канала
Расположение каналов : Front: L R
Частота : 48,0 КГц
Частота кадров : 31,250 кадров/сек (1536 spf)
Метод сжатия : С потерями
Размер потока : 68,5 Мбайт (10%)
Выравнивание : Разделение по промежуткам
Продолжительность промежутка : 40 мс. (1,00 видеокадр)
Время предзагрузки промежутка : 500 мс.
Download / Скачать

Хотите скачать бесплатно? Зарегистрируйтесь на сайте (ссылка на регистрацию). Pirat.ca - самый быстрый торрент трекер в рунете!

Как скачивать  ·   Что такое торрент  ·   Рейтинг и ограничения

Показать сообщения:    
Ответить на тему

Текущее время: Сегодня 08:06

Часовой пояс: GMT + 4



Вы не можете начинать темы
Вы не можете отвечать на сообщения
Вы не можете редактировать свои сообщения
Вы не можете удалять свои сообщения
Вы не можете голосовать в опросах
Вы не можете прикреплять файлы к сообщениям
Вы не можете скачивать файлы

▼ Вниз