ML
     
  Уважаемый Гость!
Вы можете поддержать проект и зарегистрироваться у наших партнеров - онлайн-стратегия MyLands. При регистрации в игре Вы получите код, который сможете активировать после регистрации на pirat.ca и получить 1000 дублонов.

Ваш код:
e93cd9e43017f251127f220889864c05934e61c6
 
     

Записки экспедитора тайной канцелярии / Сезон: 1-2 из 2 / Серии: 1-16 из 16 (Олег Рясков) [2010 г., детектив, приключения, история, DVDRip]

Ответить на тему
 
Автор
Сообщение

Пост 08-Май-2016 21:34

[Q] 

somik

Легенда

-Записки экспедитора тайной канцелярии-- Производство: Россия, BFT Movie, ВГТРК
Жанр: детектив, приключения, история
Год выпуска: 2010 г.
Продолжительность: 00:45:00
Мировая премьера: 24 мая 2011
Российская премьера: 23 сентября 2010
Дата выхода DVD: 11 ноября 2010, «CP-Digital»
Режиссер: Олег Рясков-В ролях: Илья Соколовский, Екатерина Редникова, Сергей Чонишвили, Михаил Полицеймако, Марина Могилевская, Дарья Мельникова, Анастасия Горькова, Максим Дахненко, Александр Гришин, Андрей Чубченко...-Описание: В основе сюжета лежат приключения агентов Тайной канцелярии XVIII века. В первом сезоне — Ивана Самойлова (Илья Соколовский), сержанта драгунского полка, правдами и неправдами вынужденного служить в секретном ведомстве. Во втором — Семёна Плахова, который ради спасения любимой вынужден примкнуть к морской экспедиции и следовать указаниям начальника Тайной канцелярии А. Ушакова (Сергей Чонишвили). Герои из России — молодой морской офицер Плахов (Петр Красилов) и корабельный врач Бен Андерсен (Андрей Рыклин) и секретарь английского посольства Генри Анорвиль оказавшийся в лондонской тюрьме — направляются в Новый Свет и вынуждены сражаться с пиратами, побывать в плену у индейцев и спасти от позорного рабства красавицу и даже разыскать сокровища.
В сериале несколько сюжетных линий, объединяющих разных героев, судьбы которых неожиданно пересекаются в одном и том же месте. География действий обширна — герои побывают и в Лондоне и Новом Свете, на пиратском острове Фрипорте. Пираты, индейцы, погони, абордажи — в фильме есть все составляющие жанра настоящих приключений рыцарей плаща и шпаги. Первый сезон представляет собой несколько детективных новелл. Второй сезон посвящён экспедиции по следам кораблей, направленных Петром Первым к мадагаскарским пиратам.-
Качество видео: DVDRip
Контейнер: AVI
Видео кодек: XviD
Аудио кодек: AC3
Видео: 720x400 (1.80:1), 25 fps, XviD build 50 ~1199 kbps avg, 0.17 bit/pixel
Аудио: 48 kHz, AC3 Dolby Digital, 3/2 (L,C,R,l,r) + LFE ch, ~448 kbps
Cубтитры: отсутствуют
Съёмочная группа
Продюсеры — Олег Рясков, Екатерина Ефанова
Автор сценария Олег Рясков
Исполнительные продюсеры — Николай Суров, Виктор Николаев
Режиссёр-постановщик и автор сценария — Олег Рясков
Второй режиссёр — Наталья Маслова
Оператор-постановщик — Антон Костромин
Композитор — Эдгар Аренс
Художники — Юрий Карасик, Георгий Воронин
Художник по костюмам — Юлия Лабутина, Ольга Агеева
Шумовое оформление - Денис Скорина
Постановка трюков Ю.Деркач А.Лаптев
Фехтование - Андрей Рыклин
Редактор - Вера Милиховецкая
Компьютерная графика - Александр Кузьмин
Съёмки
В качестве сюжетной основы большинства показанных в сериале детективных историй брались реальные уголовные дела Тайной канцелярии и Преображенского приказа.
Для фильма был построен один из крупнейших в стране комплексов натурных декораций вблизи усадьбы Середниково, который наряду с декорациями Старой Москвы на Мосфильме стал популярен у туристов. Сейчас это «Киногород Piligrim Porto».
К съемкам сериала привлекались фрегат «Штандарт», бригантина «Триумф» и шхуна «Эспаньола».
Премия ФСБ в области литературы и искусства за 2014 год в номинации лучший кино-телефильм.
Не знаю, как у кого, но у меня, начиная со второй серии, сложилось четкое восприятие что это что то из детства. Пахнуло именно детскими впечатлениями, которые я испытывал от экранизации Конан Дойля.
Такие же расследования, только с поправкой на 200 лет. Поначалу раздражал главный герой, Ванек Ваньком, но потом понял почему такого актера взяли. Чтобы на контрасте провести Ушакова и показать рост «профессионализма». И правда от серии к серии он «умнеет», становиться хладнокровнее и искуснее в своих делах. Но что импонирует не теряет понятие чести даже работая на тайную канцелярию. И неожиданно обставляет самого Ушакова позволяя своей невесте и ее брату скрыться от преследования.
Итак в центре действия Дуэт:опытный царедворец и начальник Приказа Ушаков и деревенский парень, подразумеваю, что его отец из новоиспеченных дворян, которых Петр Алексеевич «наплодил» во время Северной войны.
Не все серии одинаково выдержаны — создалось впечатление, что создатели пошли по пути каждое расследование в «своем жанре». Вот вам Английский детектив, вот вам ужастик, вот вам дело об отравлении. Прямо вспоминаешь Бальзака (Сцены из сельской жизни, сцены из Городской жизни)
Приятно было увидеть Катю Редникову — молодец. Особо для меня открылся неведомый до сель актер Неудачин — очень интересный образ слуги — Егора. Такой настоящий. Вообщем, замечательно скоротал вечера во время «ледяного дождя».
9 из 10
Формат : AVI
Формат/Информация : Audio Video Interleave
Размер файла : 555 Мбайт
Продолжительность : 46 м.
Общий поток : 1658 Кбит/сек
Название фильма : Sezon1.seriya1
Программа кодирования : VirtualDubMod 1.5.10.3 | www.virtualdub-fr.org || (build 2550/release)
Видео
Идентификатор : 0
Формат : MPEG-4 Visual
Профиль формата : Advanced [email protected]
Параметр BVOP формата : 1
Параметр QPel формата : Нет
Параметр GMC формата : Без точки перехода
Параметр матрицы формата : Выборочная
Идентификатор кодека : XVID
Идентификатор кодека/Подсказка : XviD
Продолжительность : 46 м.
Битрейт : 1200 Кбит/сек
Ширина : 720 пикселей
Высота : 400 пикселей
Соотношение сторон : 16:9
Частота кадров : 25,000 кадров/сек
Цветовое пространство : YUV
Субдискретизация насыщенности : 4:2:0
Битовая глубина : 8 бит
Тип развёртки : Прогрессивная
Метод сжатия : С потерями
Бит/(Пиксели*Кадры) : 0.167
Размер потока : 401 Мбайт (72%)
Библиотека кодирования : XviD 1.2.1 (UTC 2008-12-04)
Аудио
Идентификатор : 1
Формат : AC-3
Формат/Информация : Audio Coding 3
Расширение режима : CM (complete main)
Параметр Endianness формата : Big
Идентификатор кодека : 2000
Продолжительность : 46 м.
Вид битрейта : Постоянный
Битрейт : 448 Кбит/сек
Каналы : 6 каналов
Расположение каналов : Front: L C R, Side: L R, LFE
Частота : 48,0 КГц
Частота кадров : 31,250 кадров/сек (1536 spf)
Метод сжатия : С потерями
Размер потока : 150 Мбайт (27%)
Выравнивание : Разделение по промежуткам
Продолжительность промежутка : 40 мс. (1,00 видеокадр)
Время предзагрузки промежутка : 500 мс.
Формат : AVI
Формат/Информация : Audio Video Interleave
Размер файла : 554 Мбайт
Продолжительность : 44 м.
Общий поток : 1736 Кбит/сек
Название фильма : Sezon2.seriya1
Программа кодирования : VirtualDubMod 1.5.10.3 | www.virtualdub-fr.org || (build 2550/release)
Видео
Идентификатор : 0
Формат : MPEG-4 Visual
Профиль формата : Advanced [email protected]
Параметр BVOP формата : 1
Параметр QPel формата : Нет
Параметр GMC формата : Без точки перехода
Параметр матрицы формата : Выборочная
Идентификатор кодека : XVID
Идентификатор кодека/Подсказка : XviD
Продолжительность : 44 м.
Битрейт : 1278 Кбит/сек
Ширина : 720 пикселей
Высота : 400 пикселей
Соотношение сторон : 16:9
Частота кадров : 25,000 кадров/сек
Цветовое пространство : YUV
Субдискретизация насыщенности : 4:2:0
Битовая глубина : 8 бит
Тип развёртки : Прогрессивная
Метод сжатия : С потерями
Бит/(Пиксели*Кадры) : 0.178
Размер потока : 408 Мбайт (74%)
Библиотека кодирования : XviD 1.2.1 (UTC 2008-12-04)
Аудио
Идентификатор : 1
Формат : AC-3
Формат/Информация : Audio Coding 3
Расширение режима : CM (complete main)
Параметр Endianness формата : Big
Идентификатор кодека : 2000
Продолжительность : 44 м.
Вид битрейта : Постоянный
Битрейт : 448 Кбит/сек
Каналы : 6 каналов
Расположение каналов : Front: L C R, Side: L R, LFE
Частота : 48,0 КГц
Частота кадров : 31,250 кадров/сек (1536 spf)
Метод сжатия : С потерями
Размер потока : 143 Мбайт (26%)
Выравнивание : Разделение по промежуткам
Продолжительность промежутка : 40 мс. (1,00 видеокадр)
Время предзагрузки промежутка : 500 мс.
Download / Скачать

Хотите скачать бесплатно? Зарегистрируйтесь на сайте (ссылка на регистрацию). Pirat.ca - самый быстрый торрент трекер в рунете!

Как скачивать  ·   Что такое торрент  ·   Рейтинг и ограничения

Показать сообщения:    
Ответить на тему

Текущее время: Сегодня 04:27

Часовой пояс: GMT + 4



Вы не можете начинать темы
Вы не можете отвечать на сообщения
Вы не можете редактировать свои сообщения
Вы не можете удалять свои сообщения
Вы не можете голосовать в опросах
Вы не можете прикреплять файлы к сообщениям
Вы не можете скачивать файлы

▼ Вниз