ML
     
  Уважаемый Гость!
Вы можете поддержать проект и зарегистрироваться у наших партнеров - онлайн-стратегия MyLands. При регистрации в игре Вы получите код, который сможете активировать после регистрации на pirat.ca и получить 1000 дублонов.

Ваш код:
a01a592a88af5f9996a6d1baec61b18a1769954d
 
     

Последний рубеж / Сезон: 1 / Серии: 1-4 из 4 (Сергей Краснов) [2015 г., Военный, драма, история, HDRip]

Ответить на тему
 
Автор
Сообщение

Пост 09-Май-2016 03:59

[Q] 

somik

Легенда

-Последний рубеж-- Производство: Россия, Кинокомпания «Русское»
Жанр: Военный, драма, история
Год выпуска: 2015 г.
Продолжительность: 00:44:00
Режиссер: Сергей Краснов-В ролях: Алексей Демидов, Алексей Зубков, Александр Лобанов (III), Аскар Ильясов, Наталья Бардо, Иван Кокорин, Макар Запорожский, Юрий Цурило, Александр Левин (II), Влад Канопка, Олег Кныш, Александр Смирнов (IV), Александр Ратников, Алла Миронова, Михаил Негин, Валерий Скорокосов, Илья Коробко, Александр Матросов, Артём Федотов, Дмитрий Миллер, Марина Митрофанова, Максим Емельянов, Анна Проскурина, Александр Пахомов, Юрий Маслак, Дмитрий Гусев, Элеонора Ильченко, Анна Гуляренко-Описание: 1941 год. Война. Немецкое командование готовит наступление на Москву. Защита столицы вверена дивизии генерал–майора Панфилова. В составе дивизии - рота под командованием капитана Гундиловича, состоящая из двадцати восьми новобранцев. Для укрепления духа бойцов в роту Гундиловича направляют политрука Клочкова. Гундилович и Клочков знакомятся с личными делами новобранцев. За сухими строками документов встают живые люди с разными характерами и нелёгкими судьбами. Волей случая они оказались вместе, чтобы выполнить важную и ответственную задачу - создать оборону на направлении главного удара возле Волоколамского шоссе и отбросить немцев от Москвы...-
Качество видео: HDRip
Контейнер: AVI
Видео кодек: XviD
Аудио кодек: AC3
Видео: 720x400 (1.80:1), 25 fps, XviD build 73 ~1534 kbps avg, 0.21 bit/pixel
Аудио: 48 kHz, AC3 Dolby Digital, 2/0 (L,R) ch, ~192 kbps
Cубтитры: отсутствуют
Формат : AVI
Формат/Информация : Audio Video Interleave
Размер файла : 550 Мбайт
Продолжительность : 44 м.
Общий поток : 1736 Кбит/сек
Название фильма : 01.Последний рубеж.2016.HDTVRip.[pirat.ca]
Программа кодирования : VirtualDubMod 1.5.10.3 | www.virtualdub-fr.org || (build 2550/release)
Видео
Идентификатор : 0
Формат : MPEG-4 Visual
Профиль формата : Advanced [email protected]
Параметр BVOP формата : 1
Параметр QPel формата : Нет
Параметр GMC формата : Без точки перехода
Параметр матрицы формата : Выборочная
Идентификатор кодека : XVID
Идентификатор кодека/Подсказка : XviD
Продолжительность : 44 м.
Битрейт : 1534 Кбит/сек
Ширина : 720 пикселей
Высота : 400 пикселей
Соотношение сторон : 16:9
Частота кадров : 25,000 кадров/сек
Цветовое пространство : YUV
Субдискретизация насыщенности : 4:2:0
Битовая глубина : 8 бит
Тип развёртки : Прогрессивная
Метод сжатия : С потерями
Бит/(Пиксели*Кадры) : 0.213
Размер потока : 486 Мбайт (88%)
Библиотека кодирования : XviD 73
Аудио
Идентификатор : 1
Формат : AC-3
Формат/Информация : Audio Coding 3
Расширение режима : CM (complete main)
Параметр Endianness формата : Big
Идентификатор кодека : 2000
Продолжительность : 44 м.
Вид битрейта : Постоянный
Битрейт : 192 Кбит/сек
Каналы : 2 канала
Расположение каналов : Front: L R
Частота : 48,0 КГц
Частота кадров : 31,250 кадров/сек (1536 spf)
Метод сжатия : С потерями
Размер потока : 60,8 Мбайт (11%)
Выравнивание : Разделение по промежуткам
Продолжительность промежутка : 40 мс. (1,00 видеокадр)
Время предзагрузки промежутка : 500 мс.
Download / Скачать

Хотите скачать бесплатно? Зарегистрируйтесь на сайте (ссылка на регистрацию). Pirat.ca - самый быстрый торрент трекер в рунете!

Как скачивать  ·   Что такое торрент  ·   Рейтинг и ограничения

ss80

Флибустьер

36

Пост 09-Май-2016 10:09 (спустя 6 часов)

[Q] 

Спасибо!!!
[Профиль]  [ЛС] 

Пост 09-Май-2016 11:48 (спустя 1 час 38 минут)

Топик был перенесен из форума Отечественные сериалы (Трюм) в форум Отечественные сериалы
Андря
 

ZhekasCat

Морской Волк

35

Пост 12-Май-2016 01:24 (спустя 2 дня 15 часов)

[Q] 

Мне понравилось Спасибо
[Профиль]  [ЛС] 
Показать сообщения:    
Ответить на тему

Текущее время: Сегодня 09:50

Часовой пояс: GMT + 4



Вы не можете начинать темы
Вы не можете отвечать на сообщения
Вы не можете редактировать свои сообщения
Вы не можете удалять свои сообщения
Вы не можете голосовать в опросах
Вы не можете прикреплять файлы к сообщениям
Вы не можете скачивать файлы

▼ Вниз