ML
     
  Уважаемый Гость!
Вы можете поддержать проект и зарегистрироваться у наших партнеров - онлайн-стратегия MyLands. При регистрации в игре Вы получите код, который сможете активировать после регистрации на pirat.ca и получить 1000 дублонов.

Ваш код:
34514219cfad5497a1822ecc1269bea77988f9aa
 
     

Все могут короли / Сезон: 1 / Серии: 1-12 (Ольга Музалева) [2015 г., Фантастическая комедия, WEB-DLRip]

Ответить на тему
 
Автор
Сообщение

Пост 15-Май-2016 22:18

[Q] 

somik

Легенда

-Все могут короли-- Производство: Россия, Канал Россия, Марс Медиа Энтертейнмент
Жанр: Фантастическая комедия
Год выпуска: 2015 г.
Продолжительность: 00:46:00
Российская премьера: 2016
Режиссер: Ольга Музалева-В ролях: Максим Галкин, Александр Балуев, Мария Сёмкина, Полина Филоненко, Александр Сирин, Татьяна Рудина, Александр Пацевич, Светлана Косолапова, Любовь Германова, Дмитрий Мухамадеев, Алексей Весёлкин (младший), Максим Севриновский, Николай Сахаров, Сергей Брюн, Дмитрий Соломыкин, Андрей Заводюк, Александр Ткачев (III), Саша Булатов-Описание: Что может случиться, если поменять местами средневекового герцога Майкла Каннингема (Максим Галкин) и простого московского менеджера Мишу Николаева (Максим Галкин), похожих друг на друга как две капли воды? Миша уносит в Средневековье новенький смартфон, а с Майклом в Москве остаются лишь его бескомпромиссность, и привычка решать все проблемы «огнем и мечом».-
Качество видео: WEB-DLRip
Контейнер: AVI
Видео кодек: XviD
Аудио кодек: AC3
Видео: 720x400 (1.80:1), 25 fps, XviD build 73 ~1644 kbps avg, 0.23 bit/pixel
Аудио: 48 kHz, AC3 Dolby Digital, 2/0 (L,R) ch, ~192 kbps
Cубтитры: отсутствуют
Российский кинематограф не перестает радовать
Этот сериал стал одним из тех какими радует первый канал за последний год. Случайно увидев на 1 канале, решил ради эксперимента, и был приятно удивлен.
Но обо всем по-порядку, сериал прежде всего рассчитан на посмеяться, подчас даже над глупыми шутками. Сюжет не нов, такое уже было, например во всем известном советском фильме «Иван Васильевич меняет профессию». Однако не все так просто, сериал прежде всего берет своей атмосферой средневековья, которое воссоздано очень точно и качественно. Что редко бывает в российском кино. Современность сделано как обычно, более-менее неплохо.
Про актеров можно сказать, что все справились со своей задачей хорошо, а Галкина я даже стал уважать, никогда бы не подумал, что он может так неплохо играть. Конечно сериал не без минусов, таких как например слишком быстрая адаптация героев к новым для них эпох и современный жаргон в средневековье, а также современный стиль поведения. Однако все это сделано ради юмора и не напрягает.
В целом добротный, интересный и смешной сериал, с хорошим сюжетом. Подойдет тем кто хочет расслабиться, посмеяться под средневековую атмосферу.
9 из 10
Формат : AVI
Формат/Информация : Audio Video Interleave
Размер файла : 550 Мбайт
Продолжительность : 41 м.
Общий поток : 1847 Кбит/сек
Название фильма : 01.Все могут короли 2015.WEB-DLRip.[pirat.ca]
Программа кодирования : VirtualDubMod 1.5.10.3 | www.virtualdub-fr.org || (build 2550/release)
Видео
Идентификатор : 0
Формат : MPEG-4 Visual
Профиль формата : Advanced [email protected]
Параметр BVOP формата : 1
Параметр QPel формата : Нет
Параметр GMC формата : Без точки перехода
Параметр матрицы формата : Выборочная
Идентификатор кодека : XVID
Идентификатор кодека/Подсказка : XviD
Продолжительность : 41 м.
Битрейт : 1645 Кбит/сек
Ширина : 720 пикселей
Высота : 400 пикселей
Соотношение сторон : 16:9
Частота кадров : 25,000 кадров/сек
Цветовое пространство : YUV
Субдискретизация насыщенности : 4:2:0
Битовая глубина : 8 бит
Тип развёртки : Прогрессивная
Метод сжатия : С потерями
Бит/(Пиксели*Кадры) : 0.228
Размер потока : 489 Мбайт (89%)
Библиотека кодирования : XviD 73
Аудио
Идентификатор : 1
Формат : AC-3
Формат/Информация : Audio Coding 3
Расширение режима : CM (complete main)
Параметр Endianness формата : Big
Идентификатор кодека : 2000
Продолжительность : 41 м.
Вид битрейта : Постоянный
Битрейт : 192 Кбит/сек
Каналы : 2 канала
Расположение каналов : Front: L R
Частота : 48,0 КГц
Частота кадров : 31,250 кадров/сек (1536 spf)
Метод сжатия : С потерями
Размер потока : 57,1 Мбайт (10%)
Выравнивание : Разделение по промежуткам
Продолжительность промежутка : 40 мс. (1,00 видеокадр)
Время предзагрузки промежутка : 500 мс.
Download / Скачать

Хотите скачать бесплатно? Зарегистрируйтесь на сайте (ссылка на регистрацию). Pirat.ca - самый быстрый торрент трекер в рунете!

Как скачивать  ·   Что такое торрент  ·   Рейтинг и ограничения

Показать сообщения:    
Ответить на тему

Текущее время: Сегодня 07:54

Часовой пояс: GMT + 4



Вы не можете начинать темы
Вы не можете отвечать на сообщения
Вы не можете редактировать свои сообщения
Вы не можете удалять свои сообщения
Вы не можете голосовать в опросах
Вы не можете прикреплять файлы к сообщениям
Вы не можете скачивать файлы

▼ Вниз