ML
     
  Уважаемый Гость!
Вы можете поддержать проект и зарегистрироваться у наших партнеров - онлайн-стратегия MyLands. При регистрации в игре Вы получите код, который сможете активировать после регистрации на pirat.ca и получить 1000 дублонов.

Ваш код:
73640f24f8a0f579e128ea7346fd2db2b1009143
 
     

ЧОП / Сезон 2 / Серии: 1-16 из 16 (Михаил Соловьев) [2016г. Комедия, ситком, ..., WEB-Rip] THT

Ответить на тему
 
Автор
Сообщение

Пост 08-Июн-2016 20:58

[Q] 

kugesan

ЧОП «Безопасность – это мы!»- Телекомпания:
Страна: Россия, "Гуд Стори Медиа"
Год выпуска: 2016
Жанр: Комедия, ситком, ...-Премьера (РФ): 6 апреля 2015-Режиссер: Михаил Соловьев
В главных ролях: Сергей Степин, Олег Масленников-Войтов, Сергей Терещенко, Артур Гальченко, Денис Бузин, Яна Кошкина, Дмитрий Белоцерковский, Али Алиев, Ислам Мамергов, Виталий Гумеров-Описание фильма:
Во втором сезоне комедийного сериала «ЧОП» самые смешные охранники страны продолжают блюсти порядок в бизнес-центре «Соловей», едят, а также, наконец, находят любовь. И она влияет на их работу так, что безопасность оказывается в опасности! Лев Борисович борется за сердце хозяйки бизнес-центра Елены Сергеевны и помогает центру в трудное время: сдает его в аренду знакомым индусам — лишь бы угодить любимой. Андрей устраивает Снежану на работу в ЧОП «Кедр» и даже отдает ей часть своей зарплаты — только бы быть к ней поближе. Федя, никогда не интересовавшийся современными технологиями,находит любовь в лице айтишницы Маши. Даже Толя, которого жена выгнала из дома, оказывается втянут в любовный треугольник. Герои сериала продолжают впутываться в самые невероятные истории: их ждёт падение лифта, похищение, поиски фиолетовой шубы, арест, похороны собаки, охота на крысу - и многое другое.-Сезон: 2
Серии: 1-16 из 16 серий
Продолжительность: ~ 00:25:00 мин серия-
Качество видео: WEB-Rip
Формат: AVI
Видеокодек: XviD
Аудиокодек: Mp3
Видео: MPEG-4 Visual at 1899 Кбит/сек: 704 x 400 (1.760) at 25.000 fps, 0.27 Бит/Пиксели
Аудио: MPEG Audio at 128 Кбит/сек: 2 канала, 48,0 КГц
Cубтитры: отсутствуют
-
Общее
Полное имя : E:\_Сериалы\_Сериалы\CHOP.s02.2016.WEB-DLRip.by.ivandubskoj\CHOP.s02.e01.2016.WEB-DLRip.avi
Формат : AVI
Формат/Информация : Audio Video Interleave
Размер файла : 350 Мбайт
Продолжительность : 24 м.
Общий поток : 2036 Кбит/сек
Программа кодирования : VirtualDubMod 1.5.10.3 | www.virtualdub-fr.org || (build 2550/release)
Библиотека кодирования : VirtualDubMod build 2550/release
Видео
Идентификатор : 0
Формат : MPEG-4 Visual
Профиль формата : Advanced [email protected]
Параметр BVOP формата : 1
Параметр QPel формата : Нет
Параметр GMC формата : Без точки перехода
Параметр матрицы формата : Выборочная
Идентификатор кодека : XVID
Идентификатор кодека/Подсказка : XviD
Продолжительность : 24 м.
Битрейт : 1899 Кбит/сек
Ширина : 704 пикселя
Высота : 400 пикселей
Соотношение сторон : 16:9
Частота кадров : 25,000 кадров/сек
Цветовое пространство : YUV
Субдискретизация насыщенности : 4:2:0
Битовая глубина : 8 бит
Тип развёртки : Прогрессивная
Метод сжатия : С потерями
Бит/(Пиксели*Кадры) : 0.270
Размер потока : 327 Мбайт (93%)
Библиотека кодирования : XviD 73
Аудио
Идентификатор : 1
Формат : MPEG Audio
Версия формата : Version 1
Профиль формата : Layer 3
Идентификатор кодека : 55
Идентификатор кодека/Подсказка : MP3
Продолжительность : 24 м.
Вид битрейта : Постоянный
Битрейт : 128 Кбит/сек
Каналы : 2 канала
Частота : 48,0 КГц
Метод сжатия : С потерями
Размер потока : 22,0 Мбайт (6%)
Выравнивание : Соединение по промежуткам
Продолжительность промежутка : 40 мс. (1,00 видеокадр)
Время предзагрузки промежутка : 504 мс.
Библиотека кодирования : LAME3.99r
Настройки программы : -m s -V 4 -q 0 -lowpass 17 -b 128
-
-Скриншоты:
-
-
Раздача ведётся путём добавления новых серий; при каждом добавлении создаётся новый торрент.
Чтобы начать докачку новой серии, пользователям необходимо сделать следующее:
1. остановить скачивание,
2. удалить старый торрент у себя из клиента (старые серии удалять не надо),
3. скачать новый торрент и запустить его у себя в клиенте вместо старого, при этом указать клиенту путь в старую папку, куда и должно происходить скачивание новых серий.
Ваш клиент при этом должен произвести хеширование (проверку) старой папки (если не производит сам - помогите ему сделать это), и будет докачивать только те серии которых у вас ещё нет. Старые серии при этом не удаляются, а продолжают раздаваться!
Eсли вы уже удалили старые серии, то предотвратить повторную закачку старых серий можно, отжав галочку в соответствующих местах при запуске нового торрента. По возможности, желательно не удалять старые серии как можно дольше, чтобы релизёр не столько продолжал раздавать старые серии, а смог сконцентрироваться на новых.
Совет для тех, кто не хочет ждать перехеширования:
Создайте ещё одну папку рядом с папкой сериала (рядом, а не в ней!!!). Каждую новую серию после удачной загрузки копируйте в новую папку так чтобы ваша основная папка всегда была пуста. Когда ваш новый торрент предложит вам закачать все файлы, выберете только последнюю. Для сидирования же укажите адрес новой папки.
Как закачать отдельный файл из торрента или докачать ранее пропущенные файлы торрента!
-
1. Открыть торрент
2. Снять галки с тех файлов торрента, которые мы не хотим закачивать. Оставляем только на нужных нам файлах (файле).
3. Нажать О.К.
В клиенте utorrent
Инструкция
1) Открыть торрент

2) Снять галки с тех файлов торрента, которые мы не хотим закачивать:
* либо вручную, снимая с каждого файла галку( скрин №1)
* либо, нажав кнопку "Снять метки (Select None)", сняв сразу со всех файлов(скрин №2)
№1

№2

Оставляем только на нужных нам файлах (файле).

3)Нажать О.К
-Добавлена шестнадцатая, заключительная, серия второго сезона-Приятного просмотра!!!-
Download / Скачать

Хотите скачать бесплатно? Зарегистрируйтесь на сайте (ссылка на регистрацию). Pirat.ca - самый быстрый торрент трекер в рунете!

Как скачивать  ·   Что такое торрент  ·   Рейтинг и ограничения



Последний раз редактировалось: kugesan (2016-07-05 23:03), всего редактировалось 12 раз(а)

shayhi79

Морской Волк

Пост 08-Июн-2016 22:11 (спустя 1 час 12 минут)

[Q] 

Спасибо!!! Автору респект!!!
[Профиль]  [ЛС] 

Вольный

Юнга

Пост 09-Июн-2016 10:17 (спустя 12 часов)

[Q] 

Спасибо Супер!
[Профиль]  [ЛС] 

pdb08

Легенда

Пост 17-Июн-2016 00:45 (спустя 7 дней)

[Q] 

kugesan, Автору респект!!! .

_________________
[Профиль]  [ЛС] 

Angel_XP

Морской Волк

Пост 30-Июн-2016 13:28 (спустя 13 дней)

[Q] 

Автору респект!!! смотреть можно, местами веселит
[Профиль]  [ЛС] 
Показать сообщения:    
Ответить на тему

Текущее время: Сегодня 22:33

Часовой пояс: GMT + 4



Вы не можете начинать темы
Вы не можете отвечать на сообщения
Вы не можете редактировать свои сообщения
Вы не можете удалять свои сообщения
Вы не можете голосовать в опросах
Вы не можете прикреплять файлы к сообщениям
Вы не можете скачивать файлы

▼ Вниз