ML
     
  Уважаемый Гость!
Вы можете поддержать проект и зарегистрироваться у наших партнеров - онлайн-стратегия MyLands. При регистрации в игре Вы получите код, который сможете активировать после регистрации на pirat.ca и получить 1000 дублонов.

Ваш код:
a261790f23fb05d13d060bdee9cb70d1451a6d3d
 
     

Тайна кумира (Александр Баранов, ...) [2016 г., детектив, история, драма, HD TVRIP-AVC] [минисериал / 1-8 из 8]

Ответить на тему
 
Автор
Сообщение

Пост 24-Июн-2016 19:34

[Q] 

somik

Легенда

-Тайна кумира / минисериал / 1-8 из 8-- Производство: Россия, SF Production
Режиссер: Александр Баранов, ...
Жанр: детектив, история, драма
Год выпуска: 2016 г.
Продолжительность: 00:45:00
Российская премьера: 2016
В ролях: Алексей Воробьёв, Кристина Асмус, Игорь Миркурбанов, Владимир Стержаков, Ольга Будина, Роман Полянский, Александр Лазарев (мл.), Валентин Смирнитский, Татьяна Васильева, Алёна Хмельницкая, Евгений Воскресенский, Александр Поздняков (IV), Александр Рубенчик, Мария Чувилина, Фархад Гусейнов, Елена Ваганова, Алиса Супрун-Описание: Действие происходит в СССР накануне Олимпиады 1980 года.Руслан Волгин (Алексей Воробьев) - молодой популярный певец и кумир женщин, его любит сам генсек Брежнев и его дочь Галина. Он вырос в Крыму в приемной цыганской семье и сам пробивал себе дорогу на эстраду. Кажется, Волгин добился всего, о чем мечтал, он был на вершине славы - правительственные концерты, всенародное признание, могущественные заступники и толпы поклонниц, дежуривших под его окнами днем и ночью. Певца даже удостоили чести исполнять гимн на предстоящей Олимпиаде...-Сэмпл КиноПоиск
Качество видео: HD TVRIP-AVC
Контейнер: MKV
Видео кодек: MPEG4 AVC
Аудио кодек: AC3
Видео: 768x432, 25 fps, x264 core ~1 346 Kbps, 0.162 bit/pixel
Аудио: AC-3, 48000 Гц, 192 Кбит/с, 2 канала
Cубтитры: отсутствуют
Общее
Уникальный идентификатор : 180213414231203701678913720864985626477 (0x8793D751559797C8945875B28F4CB76D)
Полное имя : J:\Тайна кумира\Tajna Kumira.2015.[pirat.ca]\Tajna Kumira.01.2015.[pirat.ca].mkv
Формат : Matroska
Версия формата : Version 4 / Version 2
Размер файла : 497 Мбайт
Продолжительность : 45 м.
Общий поток : 1540 Кбит/сек
Дата кодирования : UTC 2016-06-23 16:17:48
Программа кодирования : mkvmerge v6.1.0 ('Old Devil') built on Mar 4 2013 09:10:42
Библиотека кодирования : libebml v1.3.0 + libmatroska v1.4.0
Видео
Идентификатор : 1
Формат : AVC
Формат/Информация : Advanced Video Codec
Профиль формата : [email protected]
Параметр CABAC формата : Да
Параметр ReFrames формата : 9 кадров
Идентификатор кодека : V_MPEG4/ISO/AVC
Продолжительность : 45 м.
Битрейт : 1346 Кбит/сек
Ширина : 768 пикселей
Высота : 432 пикселя
Соотношение сторон : 16:9
Режим частоты кадров : Постоянный
Частота кадров : 25,000 кадров/сек
Цветовое пространство : YUV
Субдискретизация насыщенности : 4:2:0
Битовая глубина : 8 бит
Тип развёртки : Прогрессивная
Бит/(Пиксели*Кадры) : 0.162
Размер потока : 425 Мбайт (86%)
Библиотека кодирования : x264 core 130 r2273 b3065e6
Настройки программы : cabac=1 / ref=9 / deblock=1:-3:-2 / analyse=0x3:0x133 / me=umh / subme=10 / psy=1 / psy_rd=1.00:0.00 / mixed_ref=1 / me_range=17 / chroma_me=1 / trellis=2 / 8x8dct=1 / cqm=0 / deadzone=21,11 / fast_pskip=0 / chroma_qp_offset=-2 / threads=12 / lookahead_threads=3 / sliced_threads=0 / nr=0 / decimate=0 / interlaced=0 / bluray_compat=0 / constrained_intra=0 / bframes=11 / b_pyramid=2 / b_adapt=2 / b_bias=0 / direct=3 / weightb=1 / open_gop=0 / weightp=2 / keyint=250 / keyint_min=25 / scenecut=40 / intra_refresh=0 / rc_lookahead=60 / rc=2pass / mbtree=0 / bitrate=1346 / ratetol=1.0 / qcomp=0.67 / qpmin=0 / qpmax=69 / qpstep=4 / cplxblur=20.0 / qblur=0.5 / vbv_maxrate=50000 / vbv_bufsize=62500 / nal_hrd=none / ip_ratio=1.35 / pb_ratio=1.30 / aq=1:1.00
Default : Да
Forced : Нет
Аудио
Идентификатор : 2
Формат : AC-3
Формат/Информация : Audio Coding 3
Расширение режима : CM (complete main)
Параметр Endianness формата : Big
Идентификатор кодека : A_AC3
Продолжительность : 45 м.
Вид битрейта : Постоянный
Битрейт : 192 Кбит/сек
Каналы : 2 канала
Расположение каналов : Front: L R
Частота : 48,0 КГц
Частота кадров : 31,250 кадров/сек (1536 spf)
Метод сжатия : С потерями
Размер потока : 61,9 Мбайт (12%)
Default : Да
Forced : Нет
Download / Скачать

Хотите скачать бесплатно? Зарегистрируйтесь на сайте (ссылка на регистрацию). Pirat.ca - самый быстрый торрент трекер в рунете!

Как скачивать  ·   Что такое торрент  ·   Рейтинг и ограничения

Показать сообщения:    
Ответить на тему

Текущее время: Сегодня 20:05

Часовой пояс: GMT + 4



Вы не можете начинать темы
Вы не можете отвечать на сообщения
Вы не можете редактировать свои сообщения
Вы не можете удалять свои сообщения
Вы не можете голосовать в опросах
Вы не можете прикреплять файлы к сообщениям
Вы не можете скачивать файлы

▼ Вниз