ML
     
  Уважаемый Гость!
Вы можете поддержать проект и зарегистрироваться у наших партнеров - онлайн-стратегия MyLands. При регистрации в игре Вы получите код, который сможете активировать после регистрации на pirat.ca и получить 1000 дублонов.

Ваш код:
db0e0ad91548759ffeb9bb88bed405e1a4b3c165
 
     

Не пара (Станислав Шмелев, Вадим Шмелев) [2015 г., детектив, мелодрама, комедия, HDTVRip] [1сезон / 1-10 из 10 серий]

Ответить на тему
 
Автор
Сообщение

Пост 25-Июн-2016 03:52

[Q] 

somik

Легенда

-Не пара / 1сезон / 1-10 из 10 серий-- Производство: Россия, Атмосфера, Анкор Студия
Режиссер: Станислав Шмелев, Вадим Шмелев
Жанр: детектив, мелодрама, комедия
Год выпуска: 2015 г.
Продолжительность: 00:44:00
Российская премьера: 2016
В ролях: Светлана Антонова, Антон Макарский, Константин Соловьёв, Анатолий Лобоцкий, Илья Носков, Юлия Чиплиева, Лилия Мэй, Максим Сальников, Сергей Марухин, Ричард Бондарев, Борис Львович, Константин Косинский, Оксана Колесникова, Максим Глотов, Андрей Стоянов, Руслан Спояло, Мария Афанасьева, Юлия Галина, Светлана Кленина, Игорь Кулачко, Кирилл Лазуткин, Дмитрий Косенкин, Константин Демидов, Наталия Просветова, Таисия Введенская, Алла Малкова, Игорь Филиппов, Евгения Ахременко, Дмитрий Митин, Артём Кочетов, Елена Грибова, Игорь Оробей, Анастасия Карачевская, Николай Измалков, Георгий Энгельгарт, Анастасия Исакова, Юрий Михеенков, Алла Музалёва, Андрей Капустин.-Описание: Марина Савельева (Светлана Антонова) была лучшим следователем Московского Следственного Управления, пока не поймала мужа-коллегу (Константин Соловьев) на измене. Она подает на развод и решает уйти со службы. Однако последнее раскрытое Савельевой дело оборачивается сюрпризом. Мало того, что преступником оказывается первая большая любовь Марины – Олег Костров (Антон Макарский). Много лет назад он исчез из ее жизни в самый разгар их романа. Теперь по странному стечению обстоятельств, вместо того чтобы сесть в тюрьму, этот аферист становится ее напарником. Марина обескуражена таким поворотом событий – ее совсем не прельщает перспектива совместной работы. А вот Олег, напротив, решает во что бы то ни стало вернуть любовь и доверие Марины. И делать он это, разумеется, будет «своими» методами. Несмотря ни на что, сочетание детективного таланта Савельевой и мошеннической изобретательности Кострова быстро приносит свои плоды. Вместе они начинают работать как частные детективы. Правда, шансов у Марины когда-нибудь исправить Кострова мало. Олег откалывает такие фокусы, от которых у Марины голова идет кругом…-Сэмпл КиноПоиск
Качество видео: HDTVRip
Контейнер: AVI
Видео кодек: XviD
Аудио кодек: AC3
Видео: 720x400 (1.80:1), 25 fps, XviD build 73 ~1530 kbps avg, 0.21 bit/pixel
Аудио: 48 kHz, AC3 Dolby Digital, 2/0 (L,R) ch, ~192 kbps
Cубтитры: отсутствуют
Общее
Полное имя : D:\D\Не пара\Ne Para.2015.HDTVRip.[pirat.ca]\01.Не пара.2015.HDTVRip.[pirat.ca].avi
Формат : AVI
Формат/Информация : Audio Video Interleave
Размер файла : 550 Мбайт
Продолжительность : 44 м.
Общий поток : 1733 Кбит/сек
Название фильма : 01.Не пара.2015.HDTVRip.[pirat.ca]
Программа кодирования : VirtualDubMod 1.5.10.3 | www.virtualdub-fr.org || (build 2550/release)
Видео
Идентификатор : 0
Формат : MPEG-4 Visual
Профиль формата : Advanced [email protected]
Параметр BVOP формата : 1
Параметр QPel формата : Нет
Параметр GMC формата : Без точки перехода
Параметр матрицы формата : Выборочная
Идентификатор кодека : XVID
Идентификатор кодека/Подсказка : XviD
Продолжительность : 44 м.
Битрейт : 1531 Кбит/сек
Ширина : 720 пикселей
Высота : 400 пикселей
Соотношение сторон : 16:9
Частота кадров : 25,000 кадров/сек
Цветовое пространство : YUV
Субдискретизация насыщенности : 4:2:0
Битовая глубина : 8 бит
Тип развёртки : Прогрессивная
Метод сжатия : С потерями
Бит/(Пиксели*Кадры) : 0.213
Размер потока : 486 Мбайт (88%)
Библиотека кодирования : XviD 73
Аудио
Идентификатор : 1
Формат : AC-3
Формат/Информация : Audio Coding 3
Расширение режима : CM (complete main)
Параметр Endianness формата : Big
Идентификатор кодека : 2000
Продолжительность : 44 м.
Вид битрейта : Постоянный
Битрейт : 192 Кбит/сек
Каналы : 2 канала
Расположение каналов : Front: L R
Частота : 48,0 КГц
Частота кадров : 31,250 кадров/сек (1536 spf)
Метод сжатия : С потерями
Размер потока : 60,9 Мбайт (11%)
Выравнивание : Разделение по промежуткам
Продолжительность промежутка : 40 мс. (1,00 видеокадр)
Время предзагрузки промежутка : 500 мс.
Download / Скачать

Хотите скачать бесплатно? Зарегистрируйтесь на сайте (ссылка на регистрацию). Pirat.ca - самый быстрый торрент трекер в рунете!

Как скачивать  ·   Что такое торрент  ·   Рейтинг и ограничения

Показать сообщения:    
Ответить на тему

Текущее время: Сегодня 08:09

Часовой пояс: GMT + 4



Вы не можете начинать темы
Вы не можете отвечать на сообщения
Вы не можете редактировать свои сообщения
Вы не можете удалять свои сообщения
Вы не можете голосовать в опросах
Вы не можете прикреплять файлы к сообщениям
Вы не можете скачивать файлы

▼ Вниз