ML
     
  Уважаемый Гость!
Вы можете поддержать проект и зарегистрироваться у наших партнеров - онлайн-стратегия MyLands. При регистрации в игре Вы получите код, который сможете активировать после регистрации на pirat.ca и получить 1000 дублонов.

Ваш код:
db0e0ad91548759ffeb9bb88bed405e1a4b3c165
 
     

Красавчик ( Серии: 1-4 серия из 4) (Александр Черных) [2011 г., Комедия, мелодрама, DVDRip]

Ответить на тему
 
Автор
Сообщение

Пост 01-Фев-2012 11:58

[Q] 

Znoi

Флибустьер

-Красавчик (1-4 серия из 4)
--Год выпуска: 2011
Производство: Россия, ДТ Продакшн
Жанр: Комедия, мелодрама
Продолжительность серии: 4 х ~ 00:45:00--Перевод: Не требуется
Оригинальный аудиопоток: русский
Субтитры: отсутствуют--Режиссер: Александр Черных--В ролях
Марат Башаров, Ольга Лерман, Ксения Роменкова, Павел Афонькин, Александр Городиский, Максим Ратинер, Карина Реука, Софья Райзман, Анна Серебрякова, Вадим Афанасьев, Алексей Размахов, Александр Пацевич, Игорь Ларин (III), Алексей Колубков, Инна Сухорецкая, Александра Попова (III)--Описание
На что вы готовы пойти ради своей мечты? А если это мечта строить дома и работать в самом престижном архитектурном бюро Москвы? А если начальник прекрасный, амбициозный сноб с каменным сердцем, категорически не берущим на работу женщин? А что если вы молодая, красивая, амбициозная и женщина?! Перед такой статистикой оказалась Саша… и решила действовать. Проблему пола может помочь решить маскарад и короткая стрижка, но что делать, если сердце начинает вздрагивать при виде некогда ненавистного сноба-начальника?-- --Источник/Качество: DVDRip
Формат: AVI
Видео кодек: XviD
Аудио кодек: MP3
Видео: XviD, ~ 1511 Кбит/с, 720x400 пикс, 25.000 кадр/сек
Аудио: MP3, 2 ch, 192 Кбит/с, 48,0 КГц
General
Complete name : D:\Krasavchik.(1-4.seriya.iz.4).2011.XviD.DVDRip.[pirat.ca]\Krasavchik.(1.seriya.iz.4).2011.XviD.DVDRip.avi
Format : AVI
Format/Info : Audio Video Interleave
File size : 550 MiB
Duration : 44mn 57s
Overall bit rate : 1 710 Kbps
Writing application : VirtualDubMod 1.5.4.1 (build 2178/release)
Writing library : VirtualDubMod build 2178/release
Video
ID : 0
Format : MPEG-4 Visual
Format profile : Advanced [email protected]
Format settings, BVOP : 1
Format settings, QPel : No
Format settings, GMC : No warppoints
Format settings, Matrix : Custom
Codec ID : XVID
Codec ID/Hint : XviD
Duration : 44mn 57s
Bit rate : 1 511 Kbps
Width : 720 pixels
Height : 400 pixels
Display aspect ratio : 16:9
Frame rate : 25.000 fps
Color space : YUV
Chroma subsampling : 4:2:0
Bit depth : 8 bits
Scan type : Progressive
Compression mode : Lossy
Bits/(Pixel*Frame) : 0.210
Stream size : 486 MiB (88%)
Writing library : XviD 64
Audio
ID : 1
Format : MPEG Audio
Format version : Version 1
Format profile : Layer 3
Mode : Joint stereo
Mode extension : MS Stereo
Codec ID : 55
Codec ID/Hint : MP3
Duration : 44mn 57s
Bit rate mode : Constant
Bit rate : 192 Kbps
Channel(s) : 2 channels
Sampling rate : 48.0 KHz
Compression mode : Lossy
Stream size : 61.7 MiB (11%)
Alignment : Aligned on interleaves
Interleave, duration : 80 ms (2.00 video frames)
Interleave, preload duration : 504 ms
Writing library : LAME3.97
Encoding settings : -m j -V 4 -q 2 -lowpass 18.6 -b 192
General
Complete name : D:\Krasavchik.(1-4.seriya.iz.4).2011.XviD.DVDRip.[pirat.ca]\Krasavchik.(2.seriya.iz.4).2011.XviD.DVDRip.avi
Format : AVI
Format/Info : Audio Video Interleave
File size : 550 MiB
Duration : 45mn 14s
Overall bit rate : 1 701 Kbps
Writing application : VirtualDubMod 1.5.4.1 (build 2178/release)
Writing library : VirtualDubMod build 2178/release
Video
ID : 0
Format : MPEG-4 Visual
Format profile : Advanced [email protected]
Format settings, BVOP : 1
Format settings, QPel : No
Format settings, GMC : No warppoints
Format settings, Matrix : Custom
Codec ID : XVID
Codec ID/Hint : XviD
Duration : 45mn 14s
Bit rate : 1 501 Kbps
Width : 720 pixels
Height : 400 pixels
Display aspect ratio : 16:9
Frame rate : 25.000 fps
Color space : YUV
Chroma subsampling : 4:2:0
Bit depth : 8 bits
Scan type : Progressive
Compression mode : Lossy
Bits/(Pixel*Frame) : 0.209
Stream size : 486 MiB (88%)
Writing library : XviD 64
Audio
ID : 1
Format : MPEG Audio
Format version : Version 1
Format profile : Layer 3
Mode : Joint stereo
Mode extension : MS Stereo
Codec ID : 55
Codec ID/Hint : MP3
Duration : 45mn 14s
Bit rate mode : Constant
Bit rate : 192 Kbps
Channel(s) : 2 channels
Sampling rate : 48.0 KHz
Compression mode : Lossy
Stream size : 62.1 MiB (11%)
Alignment : Aligned on interleaves
Interleave, duration : 80 ms (2.00 video frames)
Interleave, preload duration : 504 ms
Writing library : LAME3.97
Encoding settings : -m j -V 4 -q 2 -lowpass 18.6 -b 192
General
Complete name : D:\Krasavchik.(1-4.seriya.iz.4).2011.XviD.DVDRip.[pirat.ca]\Krasavchik.(3.seriya.iz.4).2011.XviD.DVDRip.avi
Format : AVI
Format/Info : Audio Video Interleave
File size : 550 MiB
Duration : 45mn 22s
Overall bit rate : 1 695 Kbps
Writing application : VirtualDubMod 1.5.4.1 (build 2178/release)
Writing library : VirtualDubMod build 2178/release
Video
ID : 0
Format : MPEG-4 Visual
Format profile : Advanced [email protected]
Format settings, BVOP : 1
Format settings, QPel : No
Format settings, GMC : No warppoints
Format settings, Matrix : Custom
Codec ID : XVID
Codec ID/Hint : XviD
Duration : 45mn 22s
Bit rate : 1 495 Kbps
Width : 720 pixels
Height : 400 pixels
Display aspect ratio : 16:9
Frame rate : 25.000 fps
Color space : YUV
Chroma subsampling : 4:2:0
Bit depth : 8 bits
Scan type : Progressive
Compression mode : Lossy
Bits/(Pixel*Frame) : 0.208
Stream size : 485 MiB (88%)
Writing library : XviD 64
Audio
ID : 1
Format : MPEG Audio
Format version : Version 1
Format profile : Layer 3
Mode : Joint stereo
Mode extension : MS Stereo
Codec ID : 55
Codec ID/Hint : MP3
Duration : 45mn 22s
Bit rate mode : Constant
Bit rate : 192 Kbps
Channel(s) : 2 channels
Sampling rate : 48.0 KHz
Compression mode : Lossy
Stream size : 62.3 MiB (11%)
Alignment : Aligned on interleaves
Interleave, duration : 80 ms (2.00 video frames)
Interleave, preload duration : 504 ms
Writing library : LAME3.97
Encoding settings : -m j -V 4 -q 2 -lowpass 18.6 -b 192
General
Complete name : D:\Krasavchik.(1-4.seriya.iz.4).2011.XviD.DVDRip.[pirat.ca]\Krasavchik.(4.seriya.iz.4).2011.XviD.DVDRip.avi
Format : AVI
Format/Info : Audio Video Interleave
File size : 550 MiB
Duration : 47mn 8s
Overall bit rate : 1 631 Kbps
Writing application : VirtualDubMod 1.5.4.1 (build 2178/release)
Writing library : VirtualDubMod build 2178/release
Video
ID : 0
Format : MPEG-4 Visual
Format profile : Advanced [email protected]
Format settings, BVOP : 1
Format settings, QPel : No
Format settings, GMC : No warppoints
Format settings, Matrix : Custom
Codec ID : XVID
Codec ID/Hint : XviD
Duration : 47mn 8s
Bit rate : 1 432 Kbps
Width : 720 pixels
Height : 400 pixels
Display aspect ratio : 16:9
Frame rate : 25.000 fps
Color space : YUV
Chroma subsampling : 4:2:0
Bit depth : 8 bits
Scan type : Progressive
Compression mode : Lossy
Bits/(Pixel*Frame) : 0.199
Stream size : 483 MiB (88%)
Writing library : XviD 64
Audio
ID : 1
Format : MPEG Audio
Format version : Version 1
Format profile : Layer 3
Mode : Joint stereo
Mode extension : MS Stereo
Codec ID : 55
Codec ID/Hint : MP3
Duration : 47mn 8s
Bit rate mode : Constant
Bit rate : 192 Kbps
Channel(s) : 2 channels
Sampling rate : 48.0 KHz
Compression mode : Lossy
Stream size : 64.7 MiB (12%)
Alignment : Aligned on interleaves
Interleave, duration : 80 ms (2.00 video frames)
Interleave, preload duration : 504 ms
Writing library : LAME3.97
Encoding settings : -m j -V 4 -q 2 -lowpass 18.6 -b 192
Download / Скачать

Хотите скачать бесплатно? Зарегистрируйтесь на сайте (ссылка на регистрацию). Pirat.ca - самый быстрый торрент трекер в рунете!

Как скачивать  ·   Что такое торрент  ·   Рейтинг и ограничения

nosferato

Штурман

Пост 01-Фев-2012 12:04 (спустя 5 минут)

[Q] 


_________________
Велик интернет, а отступать некуда - позади фидо
[Профиль]  [ЛС] 

Пост 01-Фев-2012 13:35 (спустя 1 час 31 минута)

Топик был перенесен из форума Сериалы в форум Отечественные сериалы

gEmOkPaT
 

varlamvanatlijj

Лоцман

Пост 01-Фев-2012 20:32 (спустя 8 часов)

[Q] 

как сериал то кто скажет?
[Профиль]  [ЛС] 

varlamvanatlijj

Лоцман

Пост 01-Фев-2012 20:32 (спустя 31 секунда)

[Q] 

а скорость где
[Профиль]  [ЛС] 

Znoi ®

Флибустьер

1163

Пост 03-Фев-2012 18:15 (спустя 1 день 21 час)

[Q] 

а скорость где
спроси у своего провайдера
[Профиль]  [ЛС] 

CHARLI2236

1098

Пост 12-Сен-2013 12:32 (спустя 1 год 7 месяцев)

[Q] 

подключусь AntiZip 26

_________________
[Профиль]  [ЛС] 
Показать сообщения:    
Ответить на тему

Текущее время: Сегодня 08:07

Часовой пояс: GMT + 4



Вы не можете начинать темы
Вы не можете отвечать на сообщения
Вы не можете редактировать свои сообщения
Вы не можете удалять свои сообщения
Вы не можете голосовать в опросах
Вы не можете прикреплять файлы к сообщениям
Вы не можете скачивать файлы

▼ Вниз