ML
     
  Уважаемый Гость!
Вы можете поддержать проект и зарегистрироваться у наших партнеров - онлайн-стратегия MyLands. При регистрации в игре Вы получите код, который сможете активировать после регистрации на pirat.ca и получить 1000 дублонов.

Ваш код:
a978488e62322cd72e113ab723b8a7fdc10eb9b9
 
     

Заяц, жаренный по-берлински / Сезон: 1 / Серии: 10 из 10 (Сергей Крутин) [2011 г., Военная комедия, DVDRip]

Ответить на тему
 
Автор
Сообщение

Пост 29-Авг-2016 15:42

[Q] 

somik

Легенда

-Заяц, жаренный по-берлински-- Производство: Россия, Пирамида
Жанр: Военная комедия
Год выпуска: 2011 г.
Продолжительность: 00:44:00
Дата выхода DVD: 7 июля 2011, «Новый Диск»
Режиссер: Сергей Крутин-В ролях: Даниил Спиваковский, Инга Оболдина (Стрелкова), Артур Ваха, Сергей Сипливый, Вячеслав Соломка, Андрей Бута, Римма Зюбина-Описание: Заяц, жаренный по-берлински» — комедия, действие которой разворачивается в годы Великой Отечественной войны. Еще вчера повар знаменитого ресторана «Метрополь» Ломов потчевал своим фирменным блюдом «Заяц, жаренный по-берлински» военного атташе Германии в СССР. А сегодня, получив похоронку на сына, Ломов идет на фронт. Несмотря на то, что главный герой служит поваром на полковой кухне, он оказывается порой в самой гуще боевых действий. А еще овдовевший незадолго до войны Ломов находит на фронте свою любовь…-
Качество видео: DVDRip
Контейнер: AVI
Видео кодек: XviD
Аудио кодек: AC3
Видео: 720x400 (1.80:1), 25 fps, XviD build 50 ~1547 kbps avg, 0.22 bit/pixel
Аудио: 48 kHz, AC3 Dolby Digital, 2/0 (L,R) ch, ~192 kbps
Cубтитры: отсутствуют
Заяц…
«Заяц, жаренный по-берлински», опять какая-то ерунда, подумала я, просматривая программу передач. Но, случайно вечером включила на этот сериал, и не смогла оторваться. История повара из известного московского ресторана, попавшего на фронт в поисках своего сына — это не столько фильм о войне, в том понимании, которое мы вкладываем в это слово, сколько фильм о людях, характерах и непредвиденных ситуациях. В них и есть главный плюс фильма.
Для режиссера Сергея Крутина «Заяц..» пока что последний фильм, но… ему всего 35 лет, так что вполне можно ожидать еще такие же прекрасные фильмы. Актерский состав — идеален, настоящие профессионалы, каждый на своем месте, в своей роли. Операторская работа — хорошая, в общем, все очень постарались.
Действие фильма происходит в годы Великой Отечественной. Повар ресторана «Метрополь» отправляется на фронт в поисках своего сына. И здесь начинаются его приключения. Да, именно приключения, поскольку фильм — комедия, и ожидать кровопролитных сцен не стоит, печальные — да, заставляющие задуматься — иногда, но без трудных боев и кровопролития. Ведь война — это тоже жизнь, со своими радостями и горестями, потерями и любовью, песнями и шутками, своими необычными историями и Победой! Вот о такой непростой военной жизни простого повара и пойдет речь в фильме.
Смотреть его приятно, легко, нет каких-то неприличных сцен или плоских шуток — все в рамках, но очень весело. Отличный фильм для вечернего времяпрепровождения!
9 из 10
Общее
Полное имя : C:\герои 7\Заяц, жаренный по-берлински\Zayats, zharenyy po-berlinski.[pirat.ca]\Zayats_zharenyy_po-berlinski.2011.D.DVDRip.Xvid.JRG.s01e01.avi
Формат : AVI
Формат/Информация : Audio Video Interleave
Размер файла : 551 Мбайт
Продолжительность : 44 м.
Общий поток : 1749 Кбит/сек
Название фильма : Zayats_zharenyy_po-berlinski.2011.D.DVDRip.Xvid.JRG.s01e01
Программа кодирования : VirtualDubMod 1.5.10.3 | www.virtualdub-fr.org || (build 2550/release)
Видео
Идентификатор : 0
Формат : MPEG-4 Visual
Профиль формата : Advanced [email protected]
Параметр BVOP формата : 2
Параметр QPel формата : Нет
Параметр GMC формата : Без точки перехода
Параметр матрицы формата : Default (MPEG)
Идентификатор кодека : XVID
Идентификатор кодека/Подсказка : XviD
Продолжительность : 44 м.
Битрейт : 1547 Кбит/сек
Ширина : 720 пикселей
Высота : 400 пикселей
Соотношение сторон : 16:9
Частота кадров : 25,000 кадров/сек
Цветовое пространство : YUV
Субдискретизация насыщенности : 4:2:0
Битовая глубина : 8 бит
Тип развёртки : Прогрессивная
Метод сжатия : С потерями
Бит/(Пиксели*Кадры) : 0.215
Размер потока : 487 Мбайт (88%)
Библиотека кодирования : XviD 1.2.1 (UTC 2008-12-04)
Аудио
Идентификатор : 1
Формат : AC-3
Формат/Информация : Audio Coding 3
Расширение режима : CM (complete main)
Параметр Endianness формата : Big
Идентификатор кодека : 2000
Продолжительность : 44 м.
Вид битрейта : Постоянный
Битрейт : 192 Кбит/сек
Каналы : 2 канала
Расположение каналов : Front: L R
Частота : 48,0 КГц
Частота кадров : 31,250 кадров/сек (1536 spf)
Метод сжатия : С потерями
Размер потока : 60,5 Мбайт (11%)
Выравнивание : Разделение по промежуткам
Продолжительность промежутка : 40 мс. (1,00 видеокадр)
Время предзагрузки промежутка : 500 мс.
Download / Скачать

Хотите скачать бесплатно? Зарегистрируйтесь на сайте (ссылка на регистрацию). Pirat.ca - самый быстрый торрент трекер в рунете!

Как скачивать  ·   Что такое торрент  ·   Рейтинг и ограничения

Показать сообщения:    
Ответить на тему

Текущее время: Сегодня 22:05

Часовой пояс: GMT + 4



Вы не можете начинать темы
Вы не можете отвечать на сообщения
Вы не можете редактировать свои сообщения
Вы не можете удалять свои сообщения
Вы не можете голосовать в опросах
Вы не можете прикреплять файлы к сообщениям
Вы не можете скачивать файлы

▼ Вниз