ML
     
  Уважаемый Гость!
Вы можете поддержать проект и зарегистрироваться у наших партнеров - онлайн-стратегия MyLands. При регистрации в игре Вы получите код, который сможете активировать после регистрации на pirat.ca и получить 1000 дублонов.

Ваш код:
e6008d9811a0b6a1393c3dc51ecd7bc35637bc21
 
     

Мины в фарватере / Сезон: 1 / Серии: 8 из 8 (Николай Гейко) [2008 г., комедия, DVDRip]

Ответить на тему
 
Автор
Сообщение

Пост 07-Окт-2016 20:00

[Q] 

somik

Легенда

-Мины в фарватере-- Производство: Россия, Ментор Синема
Жанр: комедия
Год выпуска: 2008 г.
Продолжительность: 00:51:00
Российская премьера: 2008
Дата выхода DVD: 24 ноября 2011, «Монолит»
Режиссер: Николай Гейко-В ролях: Станислав Дужников, Артем Семакин, Светлана Антонова, Людмила Аринина, Николай Добрынин, Светлана Иванова, Александр Панкратов-Черный, Александр Пашутин, Сергей Степанченко, Александр Тютин, Андрей Фролов, Александра Живова, Екатерина Копанова, Карина Реука, Михаил Богдасаров, Лесь Сердюк, Владимир Долинский, Ольга Балашова, Шухрат Иргашев, Татьяна Агафонова, Андрей Ташков, Алексей Красноженюк-Описание: Если говорить практически, то «Мины в фарватере!» — это команда, которую подаёт матрос-сигнальщик, обнаружив по ходу движения корабля смертельную опасность, а если философски — фарватер нашей жизни напичкан самыми разнообразными минами. Эта история рассказывает не только о суровой жизни военных моряков, но и о любви, верности, дружбе.-
Качество видео: DVDRip
Контейнер: AVI
Видео кодек: DivX
Аудио кодек: AC3
Видео: 704x400 (1.76:1), 25 fps, DivX Codec 5.2.1 build 1328 ~1142 kbps avg, 0.16 bit/pixel
Аудио: 48 kHz, AC3 Dolby Digital, 3/2 (L,C,R,l,r) + LFE ch, ~384 kbps
Cубтитры: отсутствуют
Довольно солнечный получился сериал. По-другому сказать не получается. В какой-то мере из-за теплой атмосферы лета и моря, а может — настроения.
Про сюжет и постановку говорить не стану, но приятно посмотреть подобные работы холодной зимой — сразу появляется ощущение близкого тепла и света.
В центре событий — трое лейтенантов, которых распределили на юг. Всех троих объединяет одна работа, задача, цель — поиск и обезвреживание мин. В то же время — каждый из них личность и индивидуальность, со своими сложившимися вкусами и интересами. Им предстоит не только ужиться друг с другом в маленькой комнатенке, но и стать верными друзьями.
И вот зрителю предстоит наблюдать за тем, как жизнь иногда бывает коварна, жестока, но главное — справедлива. Наблюдать ещё и за тем, о чем многие в наше сегодняшнее время стали забывать — о дружбе, верности и поиске правильного пути.
Если вдруг наше доблестное ТВ вновь начнет демонстрировать этот сериал — под настроение его можно не переключать.
Общее
Полное имя : C:\герои 7\Мины в фарватере\Miny v farvatere.2008.DVDRip.[pirat.ca]\Miny v farvatere.E01.2008.DVDRip.[pirat.ca].avi
Формат : AVI
Формат/Информация : Audio Video Interleave
Размер файла : 555 Мбайт
Продолжительность : 50 м.
Общий поток : 1537 Кбит/сек
Программа кодирования : VirtualDubMod 1.5.10.2 (build 2540/release)
Библиотека кодирования : VirtualDubMod build 2540/release
Видео
Идентификатор : 0
Формат : MPEG-4 Visual
Параметр BVOP формата : Нет
Параметр QPel формата : Нет
Параметр GMC формата : Без точки перехода
Параметр матрицы формата : Default (H.263)
Идентификатор кодека : DX50
Идентификатор кодека/Подсказка : DivX 5
Продолжительность : 50 м.
Битрейт : 1143 Кбит/сек
Ширина : 704 пикселя
Высота : 400 пикселей
Соотношение сторон : 16:9
Частота кадров : 25,000 кадров/сек
Цветовое пространство : YUV
Субдискретизация насыщенности : 4:2:0
Битовая глубина : 8 бит
Тип развёртки : Прогрессивная
Метод сжатия : С потерями
Бит/(Пиксели*Кадры) : 0.162
Размер потока : 413 Мбайт (74%)
Библиотека кодирования : DivX 5.2.1 (WaffleDay) (UTC 2004-09-08)
Аудио
Идентификатор : 1
Формат : AC-3
Формат/Информация : Audio Coding 3
Расширение режима : CM (complete main)
Параметр Endianness формата : Big
Идентификатор кодека : 2000
Продолжительность : 50 м.
Вид битрейта : Постоянный
Битрейт : 384 Кбит/сек
Каналы : 6 каналов
Расположение каналов : Front: L C R, Side: L R, LFE
Частота : 48,0 КГц
Частота кадров : 31,250 кадров/сек (1536 spf)
Метод сжатия : С потерями
Размер потока : 139 Мбайт (25%)
Выравнивание : Разделение по промежуткам
Продолжительность промежутка : 40 мс. (1,00 видеокадр)
Время предзагрузки промежутка : 500 мс.
Download / Скачать

Хотите скачать бесплатно? Зарегистрируйтесь на сайте (ссылка на регистрацию). Pirat.ca - самый быстрый торрент трекер в рунете!

Как скачивать  ·   Что такое торрент  ·   Рейтинг и ограничения

Показать сообщения:    
Ответить на тему

Текущее время: Сегодня 02:03

Часовой пояс: GMT + 4



Вы не можете начинать темы
Вы не можете отвечать на сообщения
Вы не можете редактировать свои сообщения
Вы не можете удалять свои сообщения
Вы не можете голосовать в опросах
Вы не можете прикреплять файлы к сообщениям
Вы не можете скачивать файлы

▼ Вниз