ML
     
  Уважаемый Гость!
Вы можете поддержать проект и зарегистрироваться у наших партнеров - онлайн-стратегия MyLands. При регистрации в игре Вы получите код, который сможете активировать после регистрации на pirat.ca и получить 1000 дублонов.

Ваш код:
c3360d664ceb84802c84b88ed062a5d134e2ba97
 
     

Богиня прайм-тайма / Сезон: 1 / Серии: 8 из 8 (Сергей Попов) [2005 г., Мелодрама, Детектив, DVDRip]

Ответить на тему
 
Автор
Сообщение

Пост 12-Окт-2016 04:55

[Q] 

somik

Легенда

-Богиня прайм-тайма-- Производство: Россия, Феникс-Фильм
Жанр: Мелодрама, Детектив
Год выпуска: 2005 г.
Продолжительность: 00:44:30
Дата выхода DVD: 22 апреля 2010, «Русское счастье»
Режиссер: Сергей Попов-В ролях: Ольга Ломоносова, Александр Дьяченко, Лана Паули, Денис Карасёв, Валерий Баринов, Михаил Полицеймако, Александр Раппопорт, Алексей Колган, Алла Будницкая, Мариэтта Цигаль-Полищук, Геннадий Христенко, Николай Токарев, Тимур Савин-Описание: Талар, дикая страна, странная война… Корреспонденты российского телевидения Ольга Шелестова и Никита Беляев выезжают снимать передовые позиции, На обратной дороге Ольга пересаживается в машину к коллегам-журналистам, чтобы успеть к эфиру, и бесследно исчезает вместе с ними. В гостиничном номере все разгромлено, значит, это не случайное похищение?..
Беляев вернулся в Москву один. Коллеги смотрят на него косо: как случилось, что он уцелел? Бахрушин, его шеф и Ольгин муж, директор информационных программ канала, вынужден довериться Беляеву. Стало известно, что недавно тайно сняли на видео неуловимого лидера талибов Акбара. Сведения пришли из Парижа, а на кануне похищения Ольха получила оттуда посылку, где среди прочего была и кассета. Потом она пропала.
Бахрушин понимает, что эти события как-то связаны между собой и летит в Талар на поиски жены, а Беляев знакомится с новой ведущей новостей красавицей Алиной Лавровой. Он оказывается втянут в интригу вокруг прекрасной и беззащитной ведущей. Лаврову кто-то шантажирует — ее грозятся убить, если она не уберется с канала. И Никита Беляев бросается ей на выручку…-
Качество видео: DVDRip
Контейнер: AVI
Видео кодек: XviD
Аудио кодек: MP3
Видео: 704x400 (1.76:1), 25 fps, XviD build 50 ~1514 kbps avg, 0.22 bit/pixel
Аудио: 48 kHz, MPEG Layer 3, 2 ch, ~128.00 kbps avg
Cубтитры: отсутствуют
Богиня прайм-тайма
Единственный роман Татьяны Устиновой, который я прочитала и единственная экранизация по её произведению, которую я посмотрела. Не люблю отечественные сериалы, но этот редкое исключение. Интересный, драматичный, динамичный, ничего лишнего, гармоничное переплетение детективной и мелодратической линий, счастливый конец. С удовольствием посмотрела.
Талар. Война. Корреспонденты российского телевидения Ольга Шелестова и Никита Беляев выезжают снимать очередной репортаж, по дороге обратно Ольга садится в машину с коллегами-журналистами и бесследно исчезает. В это время Бахрушин, его шеф и Ольгин муж, директор информационных программ канала берет новую ведущую Алину Лаврову, против которой составляется заговор. На помощь ей приходит Никита Беляев. Так начинается эта история…
Действие сериала происходит в Париже, Москве и Таларе. События развиваются стремительно, с каждой серией ситуация все больше осложняется: поиск кассеты с записью Акбара, известного террориста и распутывание заговора против Алины Лавровой.
Детективная линия. Таинственное похищение Ольги, убийство Столетова, поиски кассеты, развязка.
Мелодраматическая линия. В центре истории две пары: Алина и Никита, Ольга и Бахрушин. Алина Лаврова — красивая, очаровательная телеведущая, недавно начавшая работать на центральном канале, имеющая много недоброжелателей на новой работе. Здесь она знакомится с Никитой Беляевым, неисправимым лавеласом, но именно он предлагает ей свою помощь. Алина и Никита — красивая, романтическая пара, за бурным романом которых следит вся редакция. Ольга и Бахрушин вместе уже несколько лет, они любят друг друга, но именно их разлука помогает им понять насколько они дороги друг другу. Запомнилась их последняя встреча. Очень естественно, искренне, сердечно. В целом сериал очень понравился.
Если сравнивать с романом, то роман более реалистичен, точен, а в фильме много фактических ошибок, неточностей.
10 из 10
Общее
Полное имя : F:\Богиня прайм-тайма\Богиня прайм-тайма.2005.DVDRip.[pirat.ca]\01_Богиня прайм-тайма.avi
Формат : AVI
Формат/Информация : Audio Video Interleave
Размер файла : 536 Мбайт
Продолжительность : 45 м.
Общий поток : 1652 Кбит/сек
Библиотека кодирования : VirtualDub build 28292/release
Видео
Идентификатор : 0
Формат : MPEG-4 Visual
Профиль формата : Advanced [email protected]
Параметр BVOP формата : 1
Параметр QPel формата : Нет
Параметр GMC формата : Без точки перехода
Параметр матрицы формата : Выборочная
Идентификатор кодека : XVID
Идентификатор кодека/Подсказка : XviD
Продолжительность : 45 м.
Битрейт : 1515 Кбит/сек
Ширина : 704 пикселя
Высота : 400 пикселей
Соотношение сторон : 16:9
Частота кадров : 25,000 кадров/сек
Цветовое пространство : YUV
Субдискретизация насыщенности : 4:2:0
Битовая глубина : 8 бит
Тип развёртки : Прогрессивная
Метод сжатия : С потерями
Бит/(Пиксели*Кадры) : 0.215
Размер потока : 491 Мбайт (92%)
Библиотека кодирования : XviD 1.2.1 (UTC 2008-12-04)
Аудио
Идентификатор : 1
Формат : MPEG Audio
Версия формата : Version 1
Профиль формата : Layer 3
Режим : Joint stereo
Расширение режима : MS Stereo
Идентификатор кодека : 55
Идентификатор кодека/Подсказка : MP3
Продолжительность : 45 м.
Вид битрейта : Постоянный
Битрейт : 128 Кбит/сек
Каналы : 2 канала
Частота : 48,0 КГц
Метод сжатия : С потерями
Размер потока : 41,5 Мбайт (8%)
Выравнивание : Разделение по промежуткам
Продолжительность промежутка : 40 мс. (1,00 видеокадр)
Время предзагрузки промежутка : 500 мс.
Download / Скачать

Хотите скачать бесплатно? Зарегистрируйтесь на сайте (ссылка на регистрацию). Pirat.ca - самый быстрый торрент трекер в рунете!

Как скачивать  ·   Что такое торрент  ·   Рейтинг и ограничения

Показать сообщения:    
Ответить на тему

Текущее время: Сегодня 10:05

Часовой пояс: GMT + 4



Вы не можете начинать темы
Вы не можете отвечать на сообщения
Вы не можете редактировать свои сообщения
Вы не можете удалять свои сообщения
Вы не можете голосовать в опросах
Вы не можете прикреплять файлы к сообщениям
Вы не можете скачивать файлы

▼ Вниз