ML
     
  Уважаемый Гость!
Вы можете поддержать проект и зарегистрироваться у наших партнеров - онлайн-стратегия MyLands. При регистрации в игре Вы получите код, который сможете активировать после регистрации на pirat.ca и получить 1000 дублонов.

Ваш код:
e6008d9811a0b6a1393c3dc51ecd7bc35637bc21
 
     

Мой генерал / Сезон: 1 / Серии: 8 из 8 (Юсуп Разыков) [2006 г., мелодрама, детектив, DVDRip]

Ответить на тему
 
Автор
Сообщение

Пост 12-Окт-2016 05:13

[Q] 

somik

Легенда

-Мой генерал-- Производство: Россия, Феникс-Фильм
Жанр: мелодрама, детектив
Год выпуска: 2006 г.
Продолжительность: 00:45:00
Дата выхода DVD: 15 апреля 2010, «Русское счастье»
Режиссер: Юсуп Разыков-В ролях: Сергей Жигунов, Любовь Толкалина, Владимир Епифанцев, Ксения Ильясова, Ирина Итунина, Сергей Краснов, Вячеслав Кулаков, Александр Макогон, Андрей Межулис, Нелли Пшенная, Ада Роговцева, Иван Рыжиков, Агриппина Стеклова, Анна Твеленева-Описание: Молодая преподавательница московского ВУЗа Марина Красовская собирается в санаторий в Подмосковье. Институт, защита кандидатской диссертации, вечный жених Эдик — все это ей порядком надоело. Марина мечтает о приключении, может, детективном, на худой конец — романтическом. И получает все в первый же день «в одном флаконе».
Ветер унес ее шляпу на пруд, и, вытаскивая ее, Марина увидела в воде утопленника. Умерший Чуев тоже отдыхал в этом же пансионате. Милиция сочла это несчастным случаем. Но Марина уверена — это убийство. Рядом с прудом она нашла одну улику… Но вот с кем поделиться? Она рассказывает свою тайну Федору Тучкову, который поначалу ей не понравился, но уже на следующий день он стал ее напарником. Назревает курортный роман, чему она изо всех сил сопротивляется.
Под подозрение попадают сразу несколько отдыхающих, которые оказываются не совсем теми, за кого себя выдают. Марине ничего не остается, как довериться Тучкову, тем более что выяснилось: он — профессионал, полковник ФСБ, и отдыхает здесь не случайно.-
Качество видео: DVDRip
Контейнер: AVI
Видео кодек: XviD
Аудио кодек: MP3
Видео: 640x368 (1.74:1), 25 fps, XviD build 55 ~1452 kbps avg, 0.25 bit/pixel
Аудио: 48 kHz, MPEG Layer 3, 2 ch, ~175.31 kbps avg
Cубтитры: отсутствуют
Вот так надо снимать кино
В титрах написано, что фильм снят по мотивам романа Т. Устиновой. По мне так всё наоборот, так как книга просто нечитабельна. Фильм получился очень хорошим. После просмотра остаётся впечатление как будто тебя всё время обдувал лёгкий морской бриз.
Прекрасная режиссёрская работа, что-то в стиле А. Кристи, но намного лучше. Не любитель петь фанфары артистам, но здесь каждый на своём месте и в независимости от популярности и известности сделали свою работу на-отлично. Немного удивляет как из простенького сюжета получился отличный фильм, видимо это и называется простым словом — профессионализм. Вот так видимо надо снимать кино, чтобы у зрителя оставалось впечатление, что посмотрел что-то шедевральное. Высокопрофессиональная работа всего творческого количества однозначно оценивается на 100+,а вот сам фильм не стал шедевром только из-за сюжета (высосанного из пальца)хотя сценарий к фильму написан во много раз лучше, чем сам роман.
8 из 10
бщее
Полное имя : F:\Мой генерал\Мой Генерал.(8.serii.is.8).2006.DVDRip.[pirat.ca]\Мой.Генерал.(1.seriya.is.8).avi
Формат : AVI
Формат/Информация : Audio Video Interleave
Размер файла : 525 Мбайт
Продолжительность : 44 м.
Режим общего битрейта : Переменный
Общий поток : 1641 Кбит/сек
Программа кодирования : VirtualDubMod 1.5.4.1 (build 2178/release)
Библиотека кодирования : VirtualDubMod build 2178/release
Видео
Идентификатор : 0
Формат : MPEG-4 Visual
Профиль формата : Advanced [email protected]
Параметр BVOP формата : 1
Параметр QPel формата : Нет
Параметр GMC формата : Без точки перехода
Параметр матрицы формата : Выборочная
Идентификатор кодека : XVID
Идентификатор кодека/Подсказка : XviD
Продолжительность : 44 м.
Битрейт : 1453 Кбит/сек
Ширина : 640 пикселей
Высота : 368 пикселей
Соотношение сторон : 1,739
Частота кадров : 25,000 кадров/сек
Цветовое пространство : YUV
Субдискретизация насыщенности : 4:2:0
Битовая глубина : 8 бит
Тип развёртки : Прогрессивная
Метод сжатия : С потерями
Бит/(Пиксели*Кадры) : 0.247
Размер потока : 465 Мбайт (89%)
Библиотека кодирования : XviD 1.3.0.dev55
Аудио
Идентификатор : 1
Формат : MPEG Audio
Версия формата : Version 1
Профиль формата : Layer 3
Режим : Joint stereo
Расширение режима : MS Stereo
Идентификатор кодека : 55
Идентификатор кодека/Подсказка : MP3
Продолжительность : 44 м.
Вид битрейта : Переменный
Битрейт : 175 Кбит/сек
Номинальный битрейт : 192 Кбит/сек
Каналы : 2 канала
Частота : 48,0 КГц
Метод сжатия : С потерями
Размер потока : 56,1 Мбайт (11%)
Выравнивание : Соединение по промежуткам
Продолжительность промежутка : 24 мс. (0,60 видеокадр)
Время предзагрузки промежутка : 543 мс.
Библиотека кодирования : LAME3.98r
Настройки программы : -m j -V 4 -q 2 -lowpass 18.6 --abr 192
Download / Скачать

Хотите скачать бесплатно? Зарегистрируйтесь на сайте (ссылка на регистрацию). Pirat.ca - самый быстрый торрент трекер в рунете!

Как скачивать  ·   Что такое торрент  ·   Рейтинг и ограничения

Показать сообщения:    
Ответить на тему

Текущее время: Сегодня 02:05

Часовой пояс: GMT + 4



Вы не можете начинать темы
Вы не можете отвечать на сообщения
Вы не можете редактировать свои сообщения
Вы не можете удалять свои сообщения
Вы не можете голосовать в опросах
Вы не можете прикреплять файлы к сообщениям
Вы не можете скачивать файлы

▼ Вниз