ML
     
  Уважаемый Гость!
Вы можете поддержать проект и зарегистрироваться у наших партнеров - онлайн-стратегия MyLands. При регистрации в игре Вы получите код, который сможете активировать после регистрации на pirat.ca и получить 1000 дублонов.

Ваш код:
34514219cfad5497a1822ecc1269bea77988f9aa
 
     

Одна тень на двоих / Сезон: 1 / Серии: 8 из 8 (Алексей Козлов) [2005 г., боевик, детектив, DVDRip]

Ответить на тему
 
Автор
Сообщение

Пост 15-Окт-2016 04:22

[Q] 

somik

Легенда

-Одна тень на двоих-- Производство: Россия, Феникс-Фильм
Жанр: боевик, детектив
Год выпуска: 2005 г.
Продолжительность: 00:48:00
Режиссер: Алексей Козлов-В ролях: Ярослав Бойко, Даниил Спиваковский, Ольга Ломоносова, Андрей Шарков, Валентина Панина, Светлана Крючкова, Константин Воробьев, Ян Цапник, Ольга Кирсанова-Миропольская, Дмитрий Сутырин, Лана Паули, Кристина Кузьмина, Любовь Виролайнен, Артур Ваха, Евгений Меркурьев, Коля Смирнов, Татьяна Аптикеева, Всеволод Цурило, Александр Ронис, Вера Миловская, Юрий Вьюшин, Лев Елисеев, Алексей Потемкин, Сергей Ольшевский, Наталья Иохвидова, Владимир Космидайло-Описание: Когда Андрей Данилов приехал домой, его жена уже умерла. Его друг — скрипач Тарасов обеспечивает ему алиби и спасает Андрея от тюрьмы.
Однако два года спустя трагическая история вновь напоминает о себе: сначала Данилов получает свадебную фотографию своей жены Нонны с надписью «Данилов — убийца», потом узнает о погроме в своем загородном доме, где уничтожены чертежи его нового проекта. После этого следует череда убийств, в которых подозревается Данилов. Кто-то упорно стремится бросить тень на несостоявшегося музыканта, сына известного писателя.
Данилов так никогда бы не принял вызов, который бросила ему судьба, если бы рядом не оказалась Марта — женщина, которая любила его всю жизнь. Поняв, что невидимый враг уничтожает все то, что ему дорого, Данилов начинает свое следствие. Марта становится его помощником и тоже оказывается в опасности. Осознав это, Данилов превращается из неуверенного интеллигента в сильного и решительного мужика. Тот, кто из всех сил подводит Андрея под монастырь, должен быть разоблачен самим Даниловым…-
Качество видео: DVDRip
Контейнер: AVI
Видео кодек: XviD
Аудио кодек: AC3
Видео: 720x432 (1.67:1), 25 fps, XviD build 50 ~1421 kbps avg, 0.18 bit/pixel
Аудио: 48 kHz, AC3 Dolby Digital, 2/0 (L,R) ch, ~192 kbps
Cубтитры: отсутствуют
Люблю этот фильм за великолепную игру Спиваковского, пронзительную музыку и отличную режиссуру. Очень трогательно сделаны флэшбэки. Очень нравится сама история, причем вовсе не романтическая линия, поскольку стремление главной героини скрывать беременность от отца ребенка вызывает, скорее, недоумение и ощущение притянутости за уши.
Минусы — растянутость, излишняя наверченность, какая-то особая суета вокруг персонажей-алкоголиков, без нее вполне можно было бы обойтись. Есть ощущение, что все это можно было уложить в четыре серии вполне, срезав ровно половину ненужного багажа.
Неудачным кажется выбор актера на главную роль. Он слишком представителен и могуч для того, кто не справляется с жизнью, и в тех сценах, где его герой растерян и жалок, игра слабая, не верится. Вообще такое впечатление, что герои второго плана переигрывают главных.
Кроме того, жанр сериала застрял где-то между драмой и комедией. Рискну предположить, что только драмой был бы краше. Комические персонажи сюда явно не вписываются.
Но это если бы да кабы, а в целом сериал остается милой романтической историей с элементами глубокой, отлично и, я бы даже сказала, отчаянно сыгранной драмы, так что не меньше
7 из 10
Общее
Полное имя : E:\Одна тень на двоих\Odna Tenj Na Dvoih.2005.DVDRip.[pirat.ca]\odna.ten.na.dvoix.1.ser..avi
Формат : AVI
Формат/Информация : Audio Video Interleave
Размер файла : 552 Мбайт
Продолжительность : 47 м.
Общий поток : 1620 Кбит/сек
Программа кодирования : VirtualDubMod 1.5.4.1 (build 2178/release)
Библиотека кодирования : VirtualDubMod build 2178/release
Видео
Идентификатор : 0
Формат : MPEG-4 Visual
Профиль формата : Advanced [email protected]
Параметр BVOP формата : 1
Параметр QPel формата : Нет
Параметр GMC формата : Без точки перехода
Параметр матрицы формата : Выборочная
Идентификатор кодека : XVID
Идентификатор кодека/Подсказка : XviD
Продолжительность : 47 м.
Битрейт : 1421 Кбит/сек
Ширина : 720 пикселей
Высота : 432 пикселя
Соотношение сторон : 5:3
Частота кадров : 25,000 кадров/сек
Цветовое пространство : YUV
Субдискретизация насыщенности : 4:2:0
Битовая глубина : 8 бит
Тип развёртки : Прогрессивная
Метод сжатия : С потерями
Бит/(Пиксели*Кадры) : 0.183
Размер потока : 484 Мбайт (88%)
Библиотека кодирования : XviD 1.2.1 (UTC 2008-12-04)
Аудио
Идентификатор : 1
Формат : AC-3
Формат/Информация : Audio Coding 3
Расширение режима : CM (complete main)
Параметр Endianness формата : Big
Идентификатор кодека : 2000
Продолжительность : 47 м.
Вид битрейта : Постоянный
Битрейт : 192 Кбит/сек
Каналы : 2 канала
Расположение каналов : Front: L R
Частота : 48,0 КГц
Частота кадров : 31,250 кадров/сек (1536 spf)
Метод сжатия : С потерями
Размер потока : 65,4 Мбайт (12%)
Выравнивание : Разделение по промежуткам
Продолжительность промежутка : 96 мс. (2,40 видеокадра)
Время предзагрузки промежутка : 96 мс.
Download / Скачать

Хотите скачать бесплатно? Зарегистрируйтесь на сайте (ссылка на регистрацию). Pirat.ca - самый быстрый торрент трекер в рунете!

Как скачивать  ·   Что такое торрент  ·   Рейтинг и ограничения

Показать сообщения:    
Ответить на тему

Текущее время: Сегодня 07:56

Часовой пояс: GMT + 4



Вы не можете начинать темы
Вы не можете отвечать на сообщения
Вы не можете редактировать свои сообщения
Вы не можете удалять свои сообщения
Вы не можете голосовать в опросах
Вы не можете прикреплять файлы к сообщениям
Вы не можете скачивать файлы

▼ Вниз