ML
     
  Уважаемый Гость!
Вы можете поддержать проект и зарегистрироваться у наших партнеров - онлайн-стратегия MyLands. При регистрации в игре Вы получите код, который сможете активировать после регистрации на pirat.ca и получить 1000 дублонов.

Ваш код:
e6008d9811a0b6a1393c3dc51ecd7bc35637bc21
 
     

Невеста из Москвы / Сезон: 1 / Серии: 4 из 4 (Наталья Хлопецкая) [2016 г., мелодрама, WEB-DLRip]

Ответить на тему
 
Автор
Сообщение

Пост 17-Окт-2016 19:01

[Q] 

somik

Легенда

-Невеста из Москвы-- Производство: Россия, Марс Медиа Энтертейнмент
Жанр: мелодрама
Год выпуска: 2016 г.
Продолжительность: 00:46:00
Режиссер: Наталья Хлопецкая-В ролях: Александр Яцко, Евгения Дмитриева, Вера Строкова, Дмитрий Чеботарев, Владимир Демидов-Описание: Георгий Фаворский, владелец крупной британской корпорации, едет в Москву, чтобы сделать предложение бывшей возлюбленной, с которой расстался много лет назад. Но гордая Ангелина не желает видеть бросившего её когда-то жениха, поэтому Фаворский призывает в помощь молодого менеджера Алекса, непревзойденного мастера пикапа. Если тот поможет боссу вернуть возлюбленную, Георгий сделает дерзкого юношу своим преемником. Алекс не сомневается в успехе, однако… все оказывается не так просто, как он представлял. Ангелина умна и на редкость строптива, к тому же дело осложняется появлением Алёны, воинственно настроенной дочери Забелиной.-
Качество видео: WEB-DLRip
Контейнер: AVI
Видео кодек: XviD
Аудио кодек: AC3
Видео: 720x400 (1.80:1), 25 fps, XviD build 73 ~1607 kbps avg, 0.22 bit/pixel
Аудио: 48 kHz, AC3 Dolby Digital, 2/0 (L,R) ch, ~192 kbps
Cубтитры: отсутствуют
Общее
Полное имя : J:\Невеста из Москвы\Nevesta iz Moskvy.2016.WEB-DLRip.[pirat.ca]\01.Nevesta iz Moskvy.2016.WEB-DLRip.[pirat.ca].avi
Формат : AVI
Формат/Информация : Audio Video Interleave
Размер файла : 595 Мбайт
Продолжительность : 45 м.
Общий поток : 1810 Кбит/сек
Программа кодирования : VirtualDubMod 1.5.10.3 | www.virtualdub-fr.org || (build 2550/release)
Библиотека кодирования : VirtualDubMod build 2550/release
Видео
Идентификатор : 0
Формат : MPEG-4 Visual
Профиль формата : Advanced [email protected]
Параметр BVOP формата : 1
Параметр QPel формата : Нет
Параметр GMC формата : Без точки перехода
Параметр матрицы формата : Выборочная
Идентификатор кодека : XVID
Идентификатор кодека/Подсказка : XviD
Продолжительность : 45 м.
Битрейт : 1608 Кбит/сек
Ширина : 720 пикселей
Высота : 400 пикселей
Соотношение сторон : 16:9
Частота кадров : 25,000 кадров/сек
Цветовое пространство : YUV
Субдискретизация насыщенности : 4:2:0
Битовая глубина : 8 бит
Тип развёртки : Прогрессивная
Метод сжатия : С потерями
Бит/(Пиксели*Кадры) : 0.223
Размер потока : 528 Мбайт (89%)
Библиотека кодирования : XviD 73
Аудио
Идентификатор : 1
Формат : AC-3
Формат/Информация : Audio Coding 3
Расширение режима : CM (complete main)
Параметр Endianness формата : Big
Идентификатор кодека : 2000
Продолжительность : 45 м.
Вид битрейта : Постоянный
Битрейт : 192 Кбит/сек
Каналы : 2 канала
Расположение каналов : Front: L R
Частота : 48,0 КГц
Частота кадров : 31,250 кадров/сек (1536 spf)
Метод сжатия : С потерями
Размер потока : 63,1 Мбайт (11%)
Выравнивание : Разделение по промежуткам
Продолжительность промежутка : 40 мс. (1,00 видеокадр)
Время предзагрузки промежутка : 500 мс.
Download / Скачать

Хотите скачать бесплатно? Зарегистрируйтесь на сайте (ссылка на регистрацию). Pirat.ca - самый быстрый торрент трекер в рунете!

Как скачивать  ·   Что такое торрент  ·   Рейтинг и ограничения

Показать сообщения:    
Ответить на тему

Текущее время: Сегодня 02:02

Часовой пояс: GMT + 4



Вы не можете начинать темы
Вы не можете отвечать на сообщения
Вы не можете редактировать свои сообщения
Вы не можете удалять свои сообщения
Вы не можете голосовать в опросах
Вы не можете прикреплять файлы к сообщениям
Вы не можете скачивать файлы

▼ Вниз