ML
     
  Уважаемый Гость!
Вы можете поддержать проект и зарегистрироваться у наших партнеров - онлайн-стратегия MyLands. При регистрации в игре Вы получите код, который сможете активировать после регистрации на pirat.ca и получить 1000 дублонов.

Ваш код:
2fd4e750dd89cae3a36ea360f2b345ccfeb562d3
 
     

Любовь на острие ножа / Сезон: 1 / Серии: 4 из 4 (Давид Кеосаян, Дмитрий Дьяченко, Олег Штром) [2007 г., драма, детектив, DVDRip]

Ответить на тему
 
Автор
Сообщение

Пост 21-Окт-2016 18:00

[Q] 

somik

Легенда

-Любовь на острие ножа-- Производство: Россия, ООО «Арт-Студия Базар» по заказу телеканала "Россия"
Жанр: драма, детектив
Год выпуска: 2007 г.
Продолжительность: 00:44:00
Российская премьера: 9 февраля 2008
Дата выхода DVD: 4 декабря 2008, «CP-Digital»,
Режиссер: Давид Кеосаян, Дмитрий Дьяченко, Олег Штром-В ролях: Даниил Страхов, Ольга Ломоносова, Лаура Кеосаян, Армен Джигарханян, Алена Хмельницкая, Никита Зверев, Иван Стебунов, Евгения Добровольская, Екатерина Семенова, Любовь Матюшина, Алексей Гришин, Дарья Дроздовская, Мария Кожевникова, Алексей Франдетти, Владимир Долинский, Дмитрий Брусникин, Татьяна Короткова, Денис Парамонов-Описание: Известный адвокат Армен Саркисов приезжает к ресторану «Остров», чтобы встретить свою горячо любимую внучку Лялю и ее жениха Мишу Золина. Молодые отмечали поступление девушки на журфак.
Прямо у крыльца неизвестный совершает убийство журналиста Александра Логинова, сотрудника популярного журнала «Город», и Саркисов становится невольным свидетелем преступления. Следствие подозревает Виктора Каморина, главного редактора журнала «Город», давнего друга и начальника убитого. Каморин сразу сознается в убийстве, но проверка показывает, что он лжет. Ляля заинтересовывается этим делом и просит деда провести собственное расследование. Девушка уверена, что он сможет найти настоящего преступника.-
Качество видео: DVDRip
Контейнер: AVI
Видео кодек: XviD
Аудио кодек: AC3
Видео: 688x416 (1.65:1), 25 fps, XviD MPEG-4 ~1759 kbps avg, 0.25 bit/pixel
Аудио: 48 kHz, AC3 Dolby Digital, 3/2 (L,C,R,l,r) + LFE ch, ~448 kbps
Cубтитры: отсутствуют
Мне очень понравился фильм. И оба главных героя неоднозначны.
Виктор Каморин весь такой хороший и пушистый, но он же понимал, что Ларой движет не только любовь, вернее не совсем любовь, а скорее чувство вины, когда она выходила за него замуж. Мне импонирует герой Страхова. Он вроде бы и боролся за свою любовь, но честно (даже когда напоил Лару, то остановился, не стал настаивать) и смирился с поражением, хотя и ждал ее. И семью свою он бросить не мог, ведь перед ними у него обязательства, а Лара сделала свой выбор, он предупреждал ее о последствиях. А чего ждал Виктор, когда спрашивал женится ли Логинов на Ларе, если он оставит ее. Раньше надо было думать, фактически он сам поломал всем жизнь. Да он как бы оставил Лару и Александра. но это было сделано так пафосно: вот я какой, я готов на жертвы.
Игра актеров — замечательна. Очень хороший сюжет. Лучшее из того что я в последнее время смотрела из отечественных фильмов.
На мой взгляд, это одна из лучших ролей Даниила Страхова и очень хороший фильм!
Единственное, что мне не понравилось — это то, что в роли «завоевательницы сердец» выступила Ольга Ломоносова. Я считаю, что она ну никак не тянет на студентку!
А в остальном, фильм очень стоящий: и сюжет и остальные актёры — просто блеск!
Отсюда и оценка.
10 из 10
Общее
Полное имя : J:\Любовь на острие ножа\Lubovj na ostrie nozha.2007.DVDRip.[pirat.ca]\1.Lubovj na ostrie nozha.2007.DVDRip.[pirat.ca].avi
Формат : AVI
Формат/Информация : Audio Video Interleave
Размер файла : 699 Мбайт
Продолжительность : 44 м.
Общий поток : 2218 Кбит/сек
Программа кодирования : FairUse Wizard - http://fairusewizard.com
Библиотека кодирования : The best and REALLY easy backup tool
Видео
Идентификатор : 0
Формат : MPEG-4 Visual
Профиль формата : Advanced [email protected]
Параметр BVOP формата : 1
Параметр QPel формата : Нет
Параметр GMC формата : Без точки перехода
Параметр матрицы формата : Default (H.263)
Режим смешивания : Сжатый битовый поток
Идентификатор кодека : XVID
Идентификатор кодека/Подсказка : XviD
Продолжительность : 44 м.
Битрейт : 1760 Кбит/сек
Ширина : 688 пикселей
Высота : 416 пикселей
Соотношение сторон : 5:3
Частота кадров : 25,000 кадров/сек
Цветовое пространство : YUV
Субдискретизация насыщенности : 4:2:0
Битовая глубина : 8 бит
Тип развёртки : Прогрессивная
Метод сжатия : С потерями
Бит/(Пиксели*Кадры) : 0.246
Размер потока : 555 Мбайт (79%)
Библиотека кодирования : XviD 1.1.0 (UTC 2005-11-22)
Аудио
Идентификатор : 1
Формат : AC-3
Формат/Информация : Audio Coding 3
Расширение режима : CM (complete main)
Параметр Endianness формата : Big
Идентификатор кодека : 2000
Продолжительность : 44 м.
Вид битрейта : Постоянный
Битрейт : 448 Кбит/сек
Каналы : 6 каналов
Расположение каналов : Front: L C R, Side: L R, LFE
Частота : 48,0 КГц
Частота кадров : 31,250 кадров/сек (1536 spf)
Метод сжатия : С потерями
Размер потока : 141 Мбайт (20%)
Выравнивание : Разделение по промежуткам
Продолжительность промежутка : 40 мс. (1,00 видеокадр)
Время предзагрузки промежутка : 500 мс.
Download / Скачать

Хотите скачать бесплатно? Зарегистрируйтесь на сайте (ссылка на регистрацию). Pirat.ca - самый быстрый торрент трекер в рунете!

Как скачивать  ·   Что такое торрент  ·   Рейтинг и ограничения

Показать сообщения:    
Ответить на тему

Текущее время: Сегодня 14:13

Часовой пояс: GMT + 4



Вы не можете начинать темы
Вы не можете отвечать на сообщения
Вы не можете редактировать свои сообщения
Вы не можете удалять свои сообщения
Вы не можете голосовать в опросах
Вы не можете прикреплять файлы к сообщениям
Вы не можете скачивать файлы

▼ Вниз