ML
     
  Уважаемый Гость!
Вы можете поддержать проект и зарегистрироваться у наших партнеров - онлайн-стратегия MyLands. При регистрации в игре Вы получите код, который сможете активировать после регистрации на pirat.ca и получить 1000 дублонов.

Ваш код:
2fd4e750dd89cae3a36ea360f2b345ccfeb562d3
 
     

Женщина без чувства юмора / Сезон: 1 / Серии: 4 из 4 (Влад Николаев) [2016 г., мелодрама, комедия, детектив, SATRip]

Ответить на тему
 
Автор
Сообщение

Пост 22-Окт-2016 06:12

[Q] 

somik

Легенда

-Женщина без чувства юмора-- Производство: Россия, ТВЦ
Жанр: мелодрама, комедия, детектив
Год выпуска: 2016 г.
Продолжительность: 00:42:00
Мировая премьера: 25 сентября 2016
Режиссер: Влад Николаев-В ролях: Екатерина Порубель, Ингрид Олеринская, Борис Миронов, Константин Новиков, Всеволод Болдин-Описание: История похищения антиквариата. Главная героиня — это непробиваемая следователь по имени Бронислава. Она же и есть та самая женщина без чувства юмора. Вместе со своим напарником — хиленьким сыном профессора, который является экспертом в области антиквариата, Брониславе предстоит распутать сложное дело. Тем временем между коллегами складываются непростые, забавные отношения. Спортивная и целеустремлённая Бронислава обучает напарника урокам самообороны. Он же рассказывает ей об искусстве, повышая её культурный уровень.-
Качество видео: SATRip
Контейнер: AVI
Видео кодек: XviD
Аудио кодек: AC3
Видео: 720x400 (1.80:1), 25 fps, XviD build 73 ~1557 kbps avg, 0.22 bit/pixel
Аудио: 48 kHz, AC3 Dolby Digital, 2/0 (L,R) ch, ~192 kbps
Cубтитры: отсутствуют
На время съемок сериала производственный комплекс «Тонстудия» превратился в отделение полиции. На территории «Мосфильма», по словам режиссера телефильма, было отработано 70 процентов всего материала, сняты все основные объекты. Отделением полиции послужило само здание «Тонстудии», в помещениях «Декорстроя» были оборудованы мастерские по восстановлению антиквариата, а в комнатах Актёрского комплекса — кабинеты следователей. Также для съёмок использовались спортзал «Мосфильма» и яблоневый сад Довженко.
Общее
Полное имя : E:\Женщина без чувства юмора\Zhenschina bez chuvstva jumora.2016.SATRip.[pirat.ca]\01.Zhenschina bez chuvstva jumora.2016.SATRip.avi
Формат : AVI
Формат/Информация : Audio Video Interleave
Размер файла : 550 Мбайт
Продолжительность : 43 м.
Общий поток : 1760 Кбит/сек
Программа кодирования : VirtualDubMod 1.5.10.3 | www.virtualdub-fr.org || (build 2550/release)
Библиотека кодирования : VirtualDubMod build 2550/release
Видео
Идентификатор : 0
Формат : MPEG-4 Visual
Профиль формата : Advanced [email protected]
Параметр BVOP формата : 1
Параметр QPel формата : Нет
Параметр GMC формата : Без точки перехода
Параметр матрицы формата : Выборочная
Идентификатор кодека : XVID
Идентификатор кодека/Подсказка : XviD
Продолжительность : 43 м.
Битрейт : 1558 Кбит/сек
Ширина : 720 пикселей
Высота : 400 пикселей
Соотношение сторон : 16:9
Частота кадров : 25,000 кадров/сек
Цветовое пространство : YUV
Субдискретизация насыщенности : 4:2:0
Битовая глубина : 8 бит
Тип развёртки : Прогрессивная
Метод сжатия : С потерями
Бит/(Пиксели*Кадры) : 0.216
Размер потока : 487 Мбайт (89%)
Библиотека кодирования : XviD 73
Аудио
Идентификатор : 1
Формат : AC-3
Формат/Информация : Audio Coding 3
Расширение режима : CM (complete main)
Параметр Endianness формата : Big
Идентификатор кодека : 2000
Продолжительность : 43 м.
Вид битрейта : Постоянный
Битрейт : 192 Кбит/сек
Каналы : 2 канала
Расположение каналов : Front: L R
Частота : 48,0 КГц
Частота кадров : 31,250 кадров/сек (1536 spf)
Метод сжатия : С потерями
Размер потока : 60,1 Мбайт (11%)
Выравнивание : Разделение по промежуткам
Продолжительность промежутка : 40 мс. (1,00 видеокадр)
Время предзагрузки промежутка : 500 мс.
Download / Скачать

Хотите скачать бесплатно? Зарегистрируйтесь на сайте (ссылка на регистрацию). Pirat.ca - самый быстрый торрент трекер в рунете!

Как скачивать  ·   Что такое торрент  ·   Рейтинг и ограничения

Показать сообщения:    
Ответить на тему

Текущее время: Сегодня 14:14

Часовой пояс: GMT + 4



Вы не можете начинать темы
Вы не можете отвечать на сообщения
Вы не можете редактировать свои сообщения
Вы не можете удалять свои сообщения
Вы не можете голосовать в опросах
Вы не можете прикреплять файлы к сообщениям
Вы не можете скачивать файлы

▼ Вниз