ML
     
  Уважаемый Гость!
Вы можете поддержать проект и зарегистрироваться у наших партнеров - онлайн-стратегия MyLands. При регистрации в игре Вы получите код, который сможете активировать после регистрации на pirat.ca и получить 1000 дублонов.

Ваш код:
93dbf9fbdfa06c41d3b5a2c3921149ba36168c41
 
     

Наваждение / Сезон: 1 / Серии: 8 из 8 (Анна Легчилова) [2004 г., Криминальная драма, DVDRip]

Ответить на тему
 
Автор
Сообщение

Пост 30-Окт-2016 01:11

[Q] 

somik

Легенда

-Наваждение-- Производство: Россия, РЕН ТВ
Жанр: Криминальная драма
Год выпуска: 2004 г.
Продолжительность: 00:48:00
Дата выхода DVD: 24 мая 2012, «Русское счастье»
Режиссер: Анна Легчилова-В ролях: Татьяна Арнтгольц, Андрей Чернышов, Андрей Мерзликин, Анатолий Белый, Резия Калныня, Андрей Краско, Наталья Гребенкина, Ярослав Бойко, Нина Русланова, Семён Стругачёв, Арнис Лицитис, Юрий Шерстнёв, Кирилл Козаков, Михаил Станкевич, Мария Николаева, Михаил Тарабукин, Виктория Разинкина, Наталья Ноздрина, Юлия Тельпухова, Кирилл Канахин, Филипп Бледный, Александр Нестеров, Вячеслав Молоков, Светлана Йозефий, Наталия Потапова, Игорь Старосельцев, Лива Круминя, Сергей Серов, Ирина Рахманова, Константин Карасик, Олег Зима-Описание: Это сложная история человеческих взаимоотношений. Она начинается на одной школьной вечеринке, продолжается на протяжении нескольких лет и заканчивается так, как не возьмется предсказать никто. Вера — главная героиня сериала. На выпускном вечере, который решили провести в лесу, она становится свидетельницей убийства. А свидетелей, как известно, убирают. Но Веру не убили. Следователь Соболь решил расправиться с ней по-своему: Вера теряет отца, мать, ей приходится уехать из родного города. Вера обязательно вернется в свой город. Правда, совсем другим человеком.-
Качество видео: DVDRip
Контейнер: AVI
Видео кодек: XviD
Аудио кодек: AC3
Видео: 720x416 (1.73:1), 25 fps, XviD build 47 ~1234 kbps avg, 0.17 bit/pixel
Аудио: 48 kHz, AC3 Dolby Digital, 2/0 (L,R) ch, ~224 kbps
Cубтитры: отсутствуют
Общее
Полное имя : F:\Наваждение [1-8 серии из 8] (2004)\Navazdenie.8.serij.iz.8.2004.XviD.DVDRip.Kinozal.tv\Navazdenie.1.serija.avi
Формат : AVI
Формат/Информация : Audio Video Interleave
Размер файла : 500 Мбайт
Продолжительность : 47 м.
Общий поток : 1466 Кбит/сек
Программа кодирования : VirtualDubMod 1.5.4.1 (build 2178/release)
Библиотека кодирования : VirtualDubMod build 2178/release
Видео
Идентификатор : 0
Формат : MPEG-4 Visual
Профиль формата : Advanced [email protected]
Параметр BVOP формата : 1
Параметр QPel формата : Нет
Параметр GMC формата : Без точки перехода
Параметр матрицы формата : Выборочная
Идентификатор кодека : XVID
Идентификатор кодека/Подсказка : XviD
Продолжительность : 47 м.
Битрейт : 1235 Кбит/сек
Ширина : 720 пикселей
Высота : 416 пикселей
Соотношение сторон : 1,731
Частота кадров : 25,000 кадров/сек
Цветовое пространство : YUV
Субдискретизация насыщенности : 4:2:0
Битовая глубина : 8 бит
Тип развёртки : Прогрессивная
Метод сжатия : С потерями
Бит/(Пиксели*Кадры) : 0.165
Размер потока : 421 Мбайт (84%)
Библиотека кодирования : XviD 1.2.0.dev47 (UTC 2006-11-01)
Аудио
Идентификатор : 1
Формат : AC-3
Формат/Информация : Audio Coding 3
Расширение режима : CM (complete main)
Параметр Endianness формата : Big
Идентификатор кодека : 2000
Продолжительность : 47 м.
Вид битрейта : Постоянный
Битрейт : 224 Кбит/сек
Каналы : 2 канала
Расположение каналов : Front: L R
Частота : 48,0 КГц
Частота кадров : 31,250 кадров/сек (1536 spf)
Метод сжатия : С потерями
Размер потока : 76,5 Мбайт (15%)
Выравнивание : Разделение по промежуткам
Продолжительность промежутка : 96 мс. (2,40 видеокадра)
Время предзагрузки промежутка : 96 мс.
Язык : Russian
Download / Скачать

Хотите скачать бесплатно? Зарегистрируйтесь на сайте (ссылка на регистрацию). Pirat.ca - самый быстрый торрент трекер в рунете!

Как скачивать  ·   Что такое торрент  ·   Рейтинг и ограничения

Показать сообщения:    
Ответить на тему

Текущее время: Сегодня 20:21

Часовой пояс: GMT + 4



Вы не можете начинать темы
Вы не можете отвечать на сообщения
Вы не можете редактировать свои сообщения
Вы не можете удалять свои сообщения
Вы не можете голосовать в опросах
Вы не можете прикреплять файлы к сообщениям
Вы не можете скачивать файлы

▼ Вниз