ML
     
  Уважаемый Гость!
Вы можете поддержать проект и зарегистрироваться у наших партнеров - онлайн-стратегия MyLands. При регистрации в игре Вы получите код, который сможете активировать после регистрации на pirat.ca и получить 1000 дублонов.

Ваш код:
59354507ba913a0948d1a8f2e30f2e04c4cd7b9b
 
     

Стена / Сезон: 1 / Серии: 4 из 4 (Дмитрий Месхиев) [2016 г., Драма, исторический, SATRip]

Ответить на тему
 
Автор
Сообщение

Пост 04-Ноя-2016 23:08

[Q] 

somik

Легенда

-Стена-- Производство: Россия, Нон-стоп Продакшн
Жанр: Драма, исторический
Год выпуска: 2016 г.
Продолжительность: 00:40:00
Российская премьера: 4 ноября 2016
Режиссер: Дмитрий Месхиев-В ролях: Алексей Серебряков, Анатолий Белый, Павел Чинарёв, Николай Аузин, Алиса Горшкова, Максим Белбородов, Ольга Павловец, Кирилл Полухин, Роман Агеев, Алексей Севастьянов, Оксана Пчелинова, Дмитрий Лебедев, Алёна Кучкова, Степан Пивкин-Описание: История об осаде польским войском под командованием короля Сигизмунда III города Смоленска в 1609-1611 годах.-
Качество видео: SATRip
Контейнер: AVI
Видео кодек: XviD
Аудио кодек: MP3
Видео: 720x448 (1.61:1), 25 fps, XviD build 50 ~1799 kbps avg, 0.22 bit/pixel
Аудио: 48 kHz, MPEG Layer 3, 2 ch, ~128.00 kbps avg
Cубтитры: отсутствуют
Фильм снят по мотивам историко-приключенческого романа министра культуры РФ Владимира Мединского «Стена».
Общее
Полное имя : D:\D\Стена [1-4 серии из 4] (2016)\Stena.2016.SATRip.[pirat.ca]\Stena.01.SATRip..avi
Формат : AVI
Формат/Информация : Audio Video Interleave
Размер файла : 623 Мбайт
Продолжительность : 44 м.
Общий поток : 1938 Кбит/сек
Программа кодирования : VirtualDubMod 1.5.10.3 | www.virtualdub-fr.org || (build 2550/release)
Библиотека кодирования : VirtualDubMod build 2550/release
Видео
Идентификатор : 0
Формат : MPEG-4 Visual
Профиль формата : Advanced [email protected]
Параметр BVOP формата : 2
Параметр QPel формата : Нет
Параметр GMC формата : Без точки перехода
Параметр матрицы формата : Default (H.263)
Идентификатор кодека : XVID
Идентификатор кодека/Подсказка : XviD
Продолжительность : 44 м.
Битрейт : 1800 Кбит/сек
Ширина : 720 пикселей
Высота : 448 пикселей
Соотношение сторон : 16:10
Частота кадров : 25,000 кадров/сек
Цветовое пространство : YUV
Субдискретизация насыщенности : 4:2:0
Битовая глубина : 8 бит
Тип развёртки : Прогрессивная
Метод сжатия : С потерями
Бит/(Пиксели*Кадры) : 0.223
Размер потока : 579 Мбайт (93%)
Библиотека кодирования : XviD 1.2.1 (UTC 2008-12-04)
Аудио
Идентификатор : 1
Формат : MPEG Audio
Версия формата : Version 1
Профиль формата : Layer 3
Режим : Joint stereo
Расширение режима : MS Stereo
Идентификатор кодека : 55
Идентификатор кодека/Подсказка : MP3
Продолжительность : 44 м.
Вид битрейта : Постоянный
Битрейт : 128 Кбит/сек
Каналы : 2 канала
Частота : 48,0 КГц
Метод сжатия : С потерями
Размер потока : 41,2 Мбайт (7%)
Выравнивание : Соединение по промежуткам
Продолжительность промежутка : 40 мс. (1,00 видеокадр)
Время предзагрузки промежутка : 504 мс.
Библиотека кодирования : LAME3.99r
Настройки программы : -m j -V 4 -q 9 -lowpass 17 -b 128
Download / Скачать

Хотите скачать бесплатно? Зарегистрируйтесь на сайте (ссылка на регистрацию). Pirat.ca - самый быстрый торрент трекер в рунете!

Как скачивать  ·   Что такое торрент  ·   Рейтинг и ограничения

somik ®

Легенда

26795

Пост 04-Ноя-2016 23:10 (спустя 1 минута)

[Q] 

Этот фильм заслуживает лучшего качества, но пока ничего нет...

_________________
Всё когда-нибудь уже было... В интернете!
[Профиль]  [ЛС] 

jofrei53

Корсар

Пост 04-Ноя-2016 23:52 (спустя 41 минута)

[Q] 

somik, Спасибо!!! Ты как всегда - на высоте. Успехов тебе во всём. Супер! Лови бочку
[Профиль]  [ЛС] 

vetpol

Лоцман

Пост 05-Ноя-2016 00:06 (спустя 14 минут)

[Q] 

О, низкий поклон!
[Профиль]  [ЛС] 

alekzandr

Пост 05-Ноя-2016 08:48 (спустя 8 часов)

[Q] 

слышал, но не видел =( обязательно гляну! Спасибо
[Профиль]  [ЛС] 

Steel_Rat

Штурман

Пост 05-Ноя-2016 10:59 (спустя 2 часа 11 минут)

[Q] 

Зачем упоминать , что это 1 сезон, если он же и последний???
Лови бочку
[Профиль]  [ЛС] 

somik ®

Легенда

26795

Пост 05-Ноя-2016 14:18 (спустя 3 часа)

[Q] 

772148Зачем упоминать , что это 1 сезон, если он же и последний???
Лови бочку
Вопрос к модераторам...

_________________
Всё когда-нибудь уже было... В интернете!
[Профиль]  [ЛС] 

ss80

Флибустьер

36

Пост 06-Ноя-2016 01:48 (спустя 11 часов)

[Q] 

Спасибо!!!
[Профиль]  [ЛС] 
Показать сообщения:    
Ответить на тему

Текущее время: Сегодня 16:10

Часовой пояс: GMT + 4



Вы не можете начинать темы
Вы не можете отвечать на сообщения
Вы не можете редактировать свои сообщения
Вы не можете удалять свои сообщения
Вы не можете голосовать в опросах
Вы не можете прикреплять файлы к сообщениям
Вы не можете скачивать файлы

▼ Вниз