ML
     
  Уважаемый Гость!
Вы можете поддержать проект и зарегистрироваться у наших партнеров - онлайн-стратегия MyLands. При регистрации в игре Вы получите код, который сможете активировать после регистрации на pirat.ca и получить 1000 дублонов.

Ваш код:
8b29d0f8cd61fe457e59e7df0aa1fab41a2b88b9
 
     

Каменное сердце / Сезон: 1 / Серии: 4 из 4 (Александр Аравин) [2016 г., мелодрама, детектив, SATRip]

Ответить на тему
 
Автор
Сообщение

Пост 05-Ноя-2016 23:56

[Q] 

somik

Легенда

-Каменное сердце-- Производство: Россия, Кинокомпания "Марс Медиа Энтертеймент"
Жанр: мелодрама, детектив
Год выпуска: 2016 г.
Продолжительность: 00:48:00
Режиссер: Александр Аравин-В ролях: Екатерина Волкова, Владимир Кошевой, Саша Вельнер, Екатерина Долгова, Наталья Гриншпун, Марта Дроздова, Ирина Бякова, Антон Афанасьев, Александр Андриенко-Описание: Галина возглавляет редакцию крупной газеты. Пережив тяжелый развод, она перестает верить в существование любви, — в ее жизни остается только работа. Но когда ее издание публикует сенсационное расследование о махинациях бизнесмена Вячеслава Андреева, карьера тоже может вот-вот рухнуть: один из источников информации оказывается непроверенным, и Андреев подает иск о клевете. Чтобы избежать суда и спасти репутацию, Галина решает найти компромат на бизнесмена.
Она отправляется в деревню, чтобы разыскать важного свидетеля — врача Михаила Леонтьева. По всей вероятности, именно по вине Андреева погибла жена доктора. Михаил живет уединенно и отказывается общаться с журналистами. Но постепенно Галина находит с ним общий язык, а после начинает рассматривать Леонтьева не только как источник информации, но и как интересного мужчину. В итоге, Михаил не только помогает Галине в ее расследовании, но и растапливает ее «каменное сердце».
Рейтинг сериала-
Качество видео: SATRip
Контейнер: AVI
Видео кодек: XviD
Аудио кодек: AC3
Видео: 720x400 (1.80:1), 25 fps, XviD build 73 ~1605 kbps avg, 0.22 bit/pixel
Аудио: 48 kHz, AC3 Dolby Digital, 2/0 (L,R) ch, ~192 kbps
Cубтитры: отсутствуют
Общее
Полное имя : J:\Каменное сердце (2016)\Kamenoe serdce.2016.SATRip.[pirat.ca]\01.Kamenoe.serdce.2016.SATRip.[pirat.ca].avi
Формат : AVI
Формат/Информация : Audio Video Interleave
Размер файла : 600 Мбайт
Продолжительность : 46 м.
Общий поток : 1808 Кбит/сек
Программа кодирования : VirtualDubMod 1.5.10.3 | www.virtualdub-fr.org || (build 2550/release)
Библиотека кодирования : VirtualDubMod build 2550/release
Видео
Идентификатор : 0
Формат : MPEG-4 Visual
Профиль формата : Advanced [email protected]
Параметр BVOP формата : 1
Параметр QPel формата : Нет
Параметр GMC формата : Без точки перехода
Параметр матрицы формата : Выборочная
Идентификатор кодека : XVID
Идентификатор кодека/Подсказка : XviD
Продолжительность : 46 м.
Битрейт : 1606 Кбит/сек
Ширина : 720 пикселей
Высота : 400 пикселей
Соотношение сторон : 16:9
Частота кадров : 25,000 кадров/сек
Цветовое пространство : YUV
Субдискретизация насыщенности : 4:2:0
Битовая глубина : 8 бит
Тип развёртки : Прогрессивная
Метод сжатия : С потерями
Бит/(Пиксели*Кадры) : 0.223
Размер потока : 533 Мбайт (89%)
Библиотека кодирования : XviD 73
Аудио
Идентификатор : 1
Формат : AC-3
Формат/Информация : Audio Coding 3
Расширение режима : CM (complete main)
Параметр Endianness формата : Big
Идентификатор кодека : 2000
Продолжительность : 46 м.
Вид битрейта : Постоянный
Битрейт : 192 Кбит/сек
Каналы : 2 канала
Расположение каналов : Front: L R
Частота : 48,0 КГц
Частота кадров : 31,250 кадров/сек (1536 spf)
Метод сжатия : С потерями
Размер потока : 63,7 Мбайт (11%)
Выравнивание : Разделение по промежуткам
Продолжительность промежутка : 40 мс. (1,00 видеокадр)
Время предзагрузки промежутка : 500 мс.
Download / Скачать

Хотите скачать бесплатно? Зарегистрируйтесь на сайте (ссылка на регистрацию). Pirat.ca - самый быстрый торрент трекер в рунете!

Как скачивать  ·   Что такое торрент  ·   Рейтинг и ограничения

Показать сообщения:    
Ответить на тему

Текущее время: Сегодня 21:24

Часовой пояс: GMT + 4



Вы не можете начинать темы
Вы не можете отвечать на сообщения
Вы не можете редактировать свои сообщения
Вы не можете удалять свои сообщения
Вы не можете голосовать в опросах
Вы не можете прикреплять файлы к сообщениям
Вы не можете скачивать файлы

▼ Вниз