ML
     
  Уважаемый Гость!
Вы можете поддержать проект и зарегистрироваться у наших партнеров - онлайн-стратегия MyLands. При регистрации в игре Вы получите код, который сможете активировать после регистрации на pirat.ca и получить 1000 дублонов.

Ваш код:
062e2babcc491faeb40d496cf9a498ac3df6cdd0
 
     

Убить Змея / Сезон: 1 / Серии: 8 из 8 (Владимир Попков) [2007 г., фэнтези, боевик, драма, DVDRip]

Ответить на тему
 
Автор
Сообщение

Пост 12-Ноя-2016 05:48

[Q] 

somik

Легенда

-Убить Змея-- Производство: Россия, Кинокомпания "Аврора"
Жанр: фэнтези, боевик, драма
Год выпуска: 2007 г.
Продолжительность: 00:50:00
Дата выхода DVD: 13 ноября 2007, «Первая Видеокомпания»
Режиссер: Владимир Попков-В ролях: Евгений Пронин, Юлия Майборода, Наталия Курдюбова, Михаил Жигалов, Ада Роговцева-Описание: Они — воины двух издревле противостоящих друг другу кланов. Веками Мангусты, воины Света, открыто выходят на бой с силами Мрака, и не приемлют в борьбе со Змеями ни хитростей, ни коварства. И столько же Змеи, адепты Тьмы, таятся, и наносят защитникам Света исподтишка удар за ударом. Судьбу этого векового противостояния решит последний из Мангустов — преподаватель французского языка в одной из московских школ Глеб. Не воин даже, а ученик, еще не знающий, что Война только начинается. Замешаны в ней директор школы и ученики, шотландский барон Мак-Грегор и генерал ФСБ Рюмин, а также многие другие…-
Качество видео: DVDRip
Контейнер: AVI
Видео кодек: XviD
Аудио кодек: MP3
Видео: 720x544 (1.32:1), 25 fps, XviD build 46 ~853 kbps avg, 0.09 bit/pixel
Аудио: 48 kHz, MPEG Layer 3, 2 ch, ~128.00 kbps avg
Cубтитры: отсутствуют
Русское фэнтези — совсем неплохо
Как то я упустила из виду наши отечественные фильмы в стиле фэнтези. «Дневной дозор» видела и на этом — все. Поэтому, прочитав, что сериал в стиле фэнтези, решила посмотреть. И не пожалела! Не могу сказать, что супер, но понравился. Динамично, захватывающе, очень непредсказуемо. Интрига поддерживается вплоть до середины последней серии — не каждый детектив может похвастать таким результатом.
В сериале задействованы хорошие актеры, исполнитель главной роли очень даже неплох, а его напарница Даша — просто прелесть какая красавица!
В сериале есть и интрига, и отличные диалоги, и взаимоотношения героев. Оригинальная идея классического противостояния Добра и Зла. Лично мне и спецэффектов хватило, не вижу, чтобы так уж сильно фильм уступал по зрелищности голивудским фэнтези.
В общем, фильм достойный, интересный, отлично снятый. Теперь поищу еще российские фэнтези, смотреть вполне можно.
9 из 10
Общее
Полное имя : J:\Убить Змея [08 из 08] (2007)\Ubit Zmeja.(8.serij.iz.8).2007.DVDRip.[pirat.ca]\Ubit.Zmeja.01.iz.8.2007.XviD.DVDRip.avi
Формат : AVI
Формат/Информация : Audio Video Interleave
Размер файла : 354 Мбайт
Продолжительность : 49 м.
Общий поток : 992 Кбит/сек
Программа кодирования : VirtualDubMod 1.5.10.2 (build 2540/release)
Библиотека кодирования : VirtualDubMod build 2540/release
Видео
Идентификатор : 0
Формат : MPEG-4 Visual
Профиль формата : Advanced [email protected]
Параметр BVOP формата : 1
Параметр QPel формата : Нет
Параметр GMC формата : Без точки перехода
Параметр матрицы формата : Выборочная
Идентификатор кодека : XVID
Идентификатор кодека/Подсказка : XviD
Продолжительность : 49 м.
Битрейт : 854 Кбит/сек
Ширина : 720 пикселей
Высота : 544 пикселя
Соотношение сторон : 4:3
Частота кадров : 25,000 кадров/сек
Цветовое пространство : YUV
Субдискретизация насыщенности : 4:2:0
Битовая глубина : 8 бит
Тип развёртки : Прогрессивная
Метод сжатия : С потерями
Бит/(Пиксели*Кадры) : 0.087
Размер потока : 304 Мбайт (86%)
Библиотека кодирования : XviD 1.1.2 (UTC 2006-11-01)
Аудио
Идентификатор : 1
Формат : MPEG Audio
Версия формата : Version 1
Профиль формата : Layer 3
Режим : Joint stereo
Расширение режима : MS Stereo
Идентификатор кодека : 55
Идентификатор кодека/Подсказка : MP3
Продолжительность : 49 м.
Вид битрейта : Постоянный
Битрейт : 128 Кбит/сек
Каналы : 2 канала
Частота : 48,0 КГц
Метод сжатия : С потерями
Размер потока : 45,6 Мбайт (13%)
Выравнивание : Соединение по промежуткам
Продолжительность промежутка : 40 мс. (1,00 видеокадр)
Время предзагрузки промежутка : 504 мс.
Библиотека кодирования : LAME3.97
Настройки программы : -m j -V 4 -q 2 -lowpass 17 -b 128
Download / Скачать

Хотите скачать бесплатно? Зарегистрируйтесь на сайте (ссылка на регистрацию). Pirat.ca - самый быстрый торрент трекер в рунете!

Как скачивать  ·   Что такое торрент  ·   Рейтинг и ограничения

Показать сообщения:    
Ответить на тему

Текущее время: Сегодня 17:42

Часовой пояс: GMT + 4



Вы не можете начинать темы
Вы не можете отвечать на сообщения
Вы не можете редактировать свои сообщения
Вы не можете удалять свои сообщения
Вы не можете голосовать в опросах
Вы не можете прикреплять файлы к сообщениям
Вы не можете скачивать файлы

▼ Вниз