Уважаемый Гость!
Вы можете поддержать проект и зарегистрироваться у наших партнеров - онлайн-стратегия MyLands. При регистрации в игре Вы получите код, который сможете активировать после регистрации на pirat.ca и получить 1000 дублонов.

Ваш код:
d49a3625bbdee1b82b14274f97c375f8b2b2ee4c
 
     

Мажор / Сезон: 2 / Серии: 1-12 из 12 (Константин Статский) [2016 г., драма,криминал, SATRip]

Ответить на тему
 
Автор
Сообщение

Пост 15-Ноя-2016 00:52

[Q] 

GMCJimmy

Легенда

-Мажор-- Производство: Россия, Продюсерский центр «Среда»
Жанр: драма,криминал
Год выпуска: 2016 г.
Продолжительность:~ 00:52:00 серия
Режиссер: Константин Статский-В ролях: Павел Прилучный, Дмитрий Шевченко, Карина Разумовская, Александр Обласов, Денис Шведов, Любовь Аксёнова, Олег Гаас, Дана Абызова, Дмитрий Лысенков, Анна Вартанян, Никита Панфилов, Анна Цуканова-Котт, Эмилия Спивак, Вера Брежнева, Вадим Лымарь, Алла Еминцева, Виктор Цекало, Галина Сидорова, Константин Фисенко, Сергей Сафронов, Кира Кауфман-Описание: Неожиданно для всех Игоря Соколовского выпускают из СИЗО, сняв все обвинения в покушении на жизнь бизнесмена Игнатьева. Но Мажор выходит с одним-единственным желанием — отомстить, так как он считает Игнатьева виновным в смерти отца и матери. Соколовский возвращается на службу в полицию, возглавляет бизнес отца, который перешел ему по наследству, заводит красивый и яркий роман с Катей. Мучается из-за отношений с Викой — они так и не смогли забыть друг друга. И день за днем торопит развязку — уничтожение Игнатьева. Но что будет после того, как цель достигнута? После того, как придется посмотреть на победу с другой стороны…-Качество видео: SATRip
Контейнер: AVI
Видео кодек: XviD
Аудио кодек: MP3
Видео: 704х448 , 1794 kbps , 25,000 fps , 0.228 Бит/Пиксел
Аудио: 128 kbps , 2 ch , 48,0 kHz
Cубтитры: отсутствуют
Формат : AVI
Формат/Информация : Audio Video Interleave
Размер файла : 669 Мбайт
Продолжительность : 48 м.
Общий поток : 1932 Кбит/сек
Программа кодирования : VirtualDubMod 1.5.10.3 | www.virtualdub-fr.org || (build 2550/release)
Библиотека кодирования : VirtualDub build 29808/release
Видео
Идентификатор : 0
Формат : MPEG-4 Visual
Профиль формата : Advanced [email protected]
Параметр BVOP формата : 2
Параметр QPel формата : Нет
Параметр GMC формата : Без точки перехода
Параметр матрицы формата : Default (H.263)
Идентификатор кодека : XVID
Идентификатор кодека/Подсказка : XviD
Продолжительность : 48 м.
Битрейт : 1794 Кбит/сек
Ширина : 704 пикселя
Высота : 448 пикселей
Соотношение сторон : 1,571
Частота кадров : 25,000 кадров/сек
Цветовое пространство : YUV
Субдискретизация насыщенности : 4:2:0
Битовая глубина : 8 бит
Тип развёртки : Прогрессивная
Метод сжатия : С потерями
Бит/(Пиксели*Кадры) : 0.228
Размер потока : 621 Мбайт (93%)
Библиотека кодирования : XviD 73
Аудио
Идентификатор : 1
Формат : AC-3
Формат/Информация : Audio Coding 3
Расширение режима : CM (complete main)
Параметр Endianness формата : Big
Идентификатор кодека : 2000
Продолжительность : 48 м.
Вид битрейта : Постоянный
Битрейт : 128 Кбит/сек
Каналы : 2 канала
Расположение каналов : Front: L R
Частота : 48,0 КГц
Битовая глубина : 16 бит
Метод сжатия : С потерями
Размер потока : 44,3 Мбайт (7%)
Выравнивание : Разделение по промежуткам
Продолжительность промежутка : 40 мс. (1,00 видеокадр)
Время предзагрузки промежутка : 500 мс.
Download / Скачать

Хотите скачать бесплатно? Зарегистрируйтесь на сайте (ссылка на регистрацию). Pirat.ca - самый быстрый торрент трекер в рунете!

Как скачивать  ·   Что такое торрент  ·   Рейтинг и ограничения



Последний раз редактировалось: GMCJimmy (2016-11-23 01:15), всего редактировалось 3 раз(а)

morter

Лоцман

Пост 17-Ноя-2016 12:36 (спустя 2 дня 11 часов)

[Q] 

скорости дайте , ни хрена скачать не могу....
[Профиль]  [ЛС] 

diabolic

Шкипер

Пост 23-Ноя-2016 15:02 (спустя 6 дней)

[Q] 

3 Сезон ожидается?
На форуме  [Профиль]  [ЛС] 

GMCJimmy ®

Легенда

9716

Пост 23-Ноя-2016 22:59 (спустя 7 часов)

[Q] 

7748213 Сезон ожидается?
Мажор 3: Согласно попавшей в Интернет информации, продолжение «Мажора» будет, однако насчет того, какая дата выхода, пока сказать довольно сложно. Одни источники уверяют, что премьера «Мажор 3» состоится 22 ноября 2018-го, другие, что съемки закончатся быстрее, осенью 2017-го года.
К слову, также в Сети гуляет информация о том, что съемки будут идти ускоренным темпом. Этому поспособствовала популярность сериала. Организаторы, выпуская первый сезон, даже и предположить не могли, что он соберет многомиллионную публику у экранов.
[Профиль]  [ЛС] 

Грешник645

Лоцман

Пост 24-Фев-2017 17:43 (спустя 3 месяца)

[Q] 

дайте скорость
[Профиль]  [ЛС] 
Показать сообщения:    
Ответить на тему

Текущее время: Сегодня 19:45

Часовой пояс: GMT + 4



Вы не можете начинать темы
Вы не можете отвечать на сообщения
Вы не можете редактировать свои сообщения
Вы не можете удалять свои сообщения
Вы не можете голосовать в опросах
Вы не можете прикреплять файлы к сообщениям
Вы не можете скачивать файлы

▼ Вниз