Уважаемый Гость!
Вы можете поддержать проект и зарегистрироваться у наших партнеров - онлайн-стратегия MyLands. При регистрации в игре Вы получите код, который сможете активировать после регистрации на pirat.ca и получить 1000 дублонов.

Ваш код:
d49a3625bbdee1b82b14274f97c375f8b2b2ee4c
 
     

Анна-детективъ / Сезон: 1 / Серии: 56 из 56 (Феликс Герчиков, ...) [2016 г., детектив, мелодрама, WEB-DL, 720p] ФИНАЛ сезона

Ответить на тему
 
Автор
Сообщение

Пост 15-Ноя-2016 04:36

[Q] 

somik

-Анна-детективъ-- Производство: Россия
Жанр: детектив, мелодрама
Год выпуска: 2016 г.
Продолжительность: 00:47:00
Российская премьера: 7 ноября 2016
Режиссер: Феликс Герчиков, ...-В ролях: Александра Никифорова, Дмитрий Фрид, Сергей Друзьяк, Борис Хвошнянский, Ирина Сидорова, Андрей Рыклин, Андрей Лукьянов, Николай Денисов, Елена Полякова, Альгис Арлаускас-Описание: В центре истории — юная девушка Анна Миронова, живущая в маленьком городке Затонск. С детства Анна одарена острым умом и впечатлительностью. Вышиванию крестиком она предпочитает гонки на диковинном велосипеде, носит шаровары, опережая моду, и говорит то, что думает. И вот однажды в провинцию приезжает сыщик из Петербурга — Яков Штольман расследовать серию загадочных преступлений. Обладая тонким умом, наблюдательностью и прагматичностью, он следует логике и доверяет только фактам. Погоня за таинственным душегубом, держащим в страхе маленький городок, переплетает судьбы столь непохожих друг на друга главных героев. Так или иначе, талант Анны видеть то, чего не замечают другие, и приоткрывать завесу будущего притягивает амбициозного столичного следователя к провинциальной девушке.-
Качество видео: WEB-DL
Контейнер: MKV
Стандарт разрешения: 720p
Видео кодек: MPEG4 AVC
Аудио кодек: AC3
Видео: ~ 3440 Кбит/с, 1280x720, 25,000 кадров/сек
Аудио: AC3, 2 ch, 192 Кбит/с, 48,0 КГц
Cубтитры: отсутствуют
Преступления, любовь и спиритические сеансы.
На самом деле я редко обращаю внимания на русские сериалы. Как-то не идут они у меня. Но сериал «Анна-детектив» привлёк моё внимание, что для меня уже немаловажно. Посмотрев по тв3 всю неделю этот сериал, я могу написать отзыв. Не буду утомлять описанием сюжета)
Критиковать я не умею, так что минусов от меня ждать не приходится. Хотя в сериале и есть ляпы, недочёты, но с другой стороны.. где их нет?
Анна- бойкая девушка, говорящая все что думает и не зависящая от чужих мнений, да ещё и обладающая даром, впечатлила меня. Наверно потому что сама я полная ее противоположность. Яков Штольман — умный сыщик из Петербурга, которого отправили работать в Затонск по своим причинам, также не оставил меня равнодушной.
Вместе они расследуют убийства, хоть Штольман скептик и считает глупостью ту информацию, что пытается донести до него Анна. Для меня главные герои интересны, за их отношениями и за ними самими хочется наблюдать. Конечно, иногда поступки их кажутся странными и нелогичными, более того, преступления может быть и не такие запутанные, как мне хотелось бы, но это можно и стерпеть
На меня это не похоже, но скажу, что в общем и целом, мне понравилось то, что я увидела. Местами можно посмеяться- юмор разбавляет на первый взгляд мрачноватость серий. Мне хочется его смотреть и наблюдать за развитием событий.
Безусловно, у каждого мнение будет своё. Но я бы предложила для интереса посмотреть одну серию, чтобы решить для себя продолжать ли смотреть или нет.
7 из 10
Общее
Уникальный идентификатор : 253950515395123926275996358952623357726 (0xBF0D17174B87B1B8054B98396A113F1E)
Полное имя : F:\Анна-детективъ (2016)\Anna detektiv.2016.WEB-DL.720p.[pirat.ca]\01.Anna.detektiv.2016.WEB-D720p.[pirat.ca].mkv
Формат : Matroska
Версия формата : Version 4 / Version 2
Размер файла : 1,22 Гбайт
Продолжительность : 48 м.
Общий поток : 3632 Кбит/сек
Программа кодирования : Lavf56.25.101
Библиотека кодирования : Lavf56.25.101 / Lavf56.25.101
Видео
Идентификатор : 1
Формат : AVC
Формат/Информация : Advanced Video Codec
Профиль формата : [email protected]
Параметр CABAC формата : Да
Параметр ReFrames формата : 1 кадр
Параметр GOP формата : M=1, N=12
Идентификатор кодека : V_MPEG4/ISO/AVC
Продолжительность : 48 м.
Битрейт : 3368 Кбит/сек
Ширина : 1280 пикселей
Высота : 720 пикселей
Соотношение сторон : 16:9
Режим частоты кадров : Постоянный
Частота кадров : 25,000 кадров/сек
Стандарт вещания : Component
Цветовое пространство : YUV
Субдискретизация насыщенности : 4:2:0
Битовая глубина : 8 бит
Тип развёртки : Прогрессивная
Бит/(Пиксели*Кадры) : 0.146
Размер потока : 1,13 Гбайт (93%)
Default : Да
Forced : Нет
Цветовой диапазон : Limited
Аудио
Идентификатор : 2
Формат : AC-3
Формат/Информация : Audio Coding 3
Расширение режима : CM (complete main)
Параметр Endianness формата : Big
Идентификатор кодека : A_AC3
Продолжительность : 48 м.
Вид битрейта : Постоянный
Битрейт : 192 Кбит/сек
Каналы : 2 канала
Расположение каналов : Front: L R
Частота : 44,1 КГц
Частота кадров : 28,711 кадров/сек (1536 spf)
Метод сжатия : С потерями
Размер потока : 66,1 Мбайт (5%)
Язык : unknown
Default : Да
Forced : Нет
Download / Скачать

Хотите скачать бесплатно? Зарегистрируйтесь на сайте (ссылка на регистрацию). Pirat.ca - самый быстрый торрент трекер в рунете!

Как скачивать  ·   Что такое торрент  ·   Рейтинг и ограничения



Последний раз редактировалось: somik (2016-12-24 03:39), всего редактировалось 4 раз(а)

somik ®

37684

Пост 23-Ноя-2016 16:52 (спустя 8 дней)

[Q] 

Добавлены 11-20 серии

_________________
Всё когда-нибудь уже было... В интернете!
[Профиль]  [ЛС] 

somik ®

37684

Пост 01-Дек-2016 18:18 (спустя 8 дней)

[Q] 

Добавлены 21-30 серии.

_________________
Всё когда-нибудь уже было... В интернете!
[Профиль]  [ЛС] 

Gros5442

Шкипер

Пост 02-Дек-2016 13:25 (спустя 19 часов)

[Q] 

Спасибо за раздачу
[Профиль]  [ЛС] 

somik ®

37684

Пост 09-Дек-2016 18:25 (спустя 7 дней)

[Q] 

Добавлены 31-40 серии.

_________________
Всё когда-нибудь уже было... В интернете!
[Профиль]  [ЛС] 

Neogar

Корсар

Пост 09-Дек-2016 21:21 (спустя 2 часа 55 минут)

[Q] 

Спасибо. Неплохой сериал

_________________
Нас reboot, а мы крепчаем...
[Профиль]  [ЛС] 

somik ®

37684

Пост 21-Дек-2016 19:28 (спустя 11 дней)

[Q] 

Добавлены 41-50 серии.

_________________
Всё когда-нибудь уже было... В интернете!
[Профиль]  [ЛС] 

olmed

Гроза морей

Пост 11-Янв-2017 19:22 (спустя 20 дней)

[Q] 

Спасибо!!!
[Профиль]  [ЛС] 
Показать сообщения:    
Ответить на тему

Текущее время: Сегодня 19:45

Часовой пояс: GMT + 4



Вы не можете начинать темы
Вы не можете отвечать на сообщения
Вы не можете редактировать свои сообщения
Вы не можете удалять свои сообщения
Вы не можете голосовать в опросах
Вы не можете прикреплять файлы к сообщениям
Вы не можете скачивать файлы

▼ Вниз