Уважаемый Гость!
Вы можете поддержать проект и зарегистрироваться у наших партнеров - онлайн-стратегия MyLands. При регистрации в игре Вы получите код, который сможете активировать после регистрации на pirat.ca и получить 1000 дублонов.

Ваш код:
b35b3ec45a7bd3f86315766471edc285be832af4
 
     

Синхронистки / Сезон: 1 / Серии: 4 из 4 (Александр Кананович) [2016 г., Лирическая комедия, WEB-DLRip]

Ответить на тему
 
Автор
Сообщение

Пост 02-Дек-2016 22:12

[Q] 

somik

-Синхронистки-- Производство: Россия, ООО "Студия кинотрадиции"
Жанр: Лирическая комедия
Год выпуска: 2016 г.
Продолжительность: 00:46:30
Российская премьера: 27 ноября 2016
Режиссер: Александр Кананович-В ролях: Евгения Осипова, Вера Шпак, Мария Голубкина, Антон Денисенко, Родион Галюченко, Галина Шевякова, Елена Бирюкова, Светлана Токарская, Алёна Горенко, Дмитрий Филиппов-Описание: Оля и Яна двадцать лет занимаются синхронным плаванием. Они вместе с самого детства, но накануне чемпионата мира у них случается «кризис отношений». Яна собирается замуж и планирует перерыв в спортивной карьере. Оля, напротив, мечтает о мировом первенстве. К ужасу тренера, звёздный дуэт распадается. Но избранник Яны не готов к женитьбе, а Оля не готова обходиться без испытанной напарницы. Девушкам бы помириться, но мешают гордость и… любопытство: им очень хочется узнать, есть ли жизнь за пределами бассейна и какова она на вкус.-
Качество видео: WEB-DLRip
Контейнер: AVI
Видео кодек: XviD
Аудио кодек: AC3
Видео: 720x400 (1.80:1), 25 fps, XviD build 73 ~1555 kbps avg, 0.22 bit/pixel
Аудио: 48 kHz, AC3 Dolby Digital, 2/0 (L,R) ch, ~192 kbps
Cубтитры: отсутствуют
Общее
Полное имя : J:\Синхронистки [1-4 серии из 4] (2016)\Sinchronistky.2016.WEB-DLRip.[pirat.ca]\01.Sinchronistky.2016.WEB-DLRip.[pirat.ca].avi
Формат : AVI
Формат/Информация : Audio Video Interleave
Размер файла : 593 Мбайт
Продолжительность : 47 м.
Общий поток : 1757 Кбит/сек
Программа кодирования : VirtualDubMod 1.5.10.3 | www.virtualdub-fr.org || (build 2550/release)
Библиотека кодирования : VirtualDubMod build 2550/release
Видео
Идентификатор : 0
Формат : MPEG-4 Visual
Профиль формата : Advanced [email protected]
Параметр BVOP формата : 1
Параметр QPel формата : Нет
Параметр GMC формата : Без точки перехода
Параметр матрицы формата : Выборочная
Идентификатор кодека : XVID
Идентификатор кодека/Подсказка : XviD
Продолжительность : 47 м.
Битрейт : 1556 Кбит/сек
Ширина : 720 пикселей
Высота : 400 пикселей
Соотношение сторон : 16:9
Частота кадров : 25,000 кадров/сек
Цветовое пространство : YUV
Субдискретизация насыщенности : 4:2:0
Битовая глубина : 8 бит
Тип развёртки : Прогрессивная
Метод сжатия : С потерями
Бит/(Пиксели*Кадры) : 0.216
Размер потока : 525 Мбайт (89%)
Библиотека кодирования : XviD 73
Аудио
Идентификатор : 1
Формат : AC-3
Формат/Информация : Audio Coding 3
Расширение режима : CM (complete main)
Параметр Endianness формата : Big
Идентификатор кодека : 2000
Продолжительность : 47 м.
Вид битрейта : Постоянный
Битрейт : 192 Кбит/сек
Каналы : 2 канала
Расположение каналов : Front: L R
Частота : 48,0 КГц
Частота кадров : 31,250 кадров/сек (1536 spf)
Метод сжатия : С потерями
Размер потока : 64,8 Мбайт (11%)
Выравнивание : Разделение по промежуткам
Продолжительность промежутка : 40 мс. (1,00 видеокадр)
Время предзагрузки промежутка : 500 мс.
Download / Скачать

Хотите скачать бесплатно? Зарегистрируйтесь на сайте (ссылка на регистрацию). Pirat.ca - самый быстрый торрент трекер в рунете!

Как скачивать  ·   Что такое торрент  ·   Рейтинг и ограничения

Показать сообщения:    
Ответить на тему

Текущее время: Сегодня 19:00

Часовой пояс: GMT + 4



Вы не можете начинать темы
Вы не можете отвечать на сообщения
Вы не можете редактировать свои сообщения
Вы не можете удалять свои сообщения
Вы не можете голосовать в опросах
Вы не можете прикреплять файлы к сообщениям
Вы не можете скачивать файлы

▼ Вниз