Уважаемый Гость!
Вы можете поддержать проект и зарегистрироваться у наших партнеров - онлайн-стратегия MyLands. При регистрации в игре Вы получите код, который сможете активировать после регистрации на pirat.ca и получить 1000 дублонов.

Ваш код:
d49a3625bbdee1b82b14274f97c375f8b2b2ee4c
 
     

Золотой транзит / Сезон: 1 / Серии: 2 из 2 (Алексей Козлов) [2016 г., Боевик, приключения, HD TVRIP-AVC]

Ответить на тему
 
Автор
Сообщение

Пост 02-Дек-2016 22:49

[Q] 

somik

-Золотой транзит-- Производство: Россия, Студия «АВК» по заказу НТВ
Жанр: Боевик, приключения
Год выпуска: 2016 г.
Продолжительность: 01:37:18
Российская премьера: 27 ноября 2016
Режиссер: Алексей Козлов-В ролях: Алексей Манцыгин, Вадим Андреев, Александр Устюгов, Яков Шамшин, Любовь Константинова, Владимир Постников, Даниил Кокин, Иван Немцов, Игорь Рудинский, Николай Пономаренко (II), Александр Соколов (XV), Мария Андрюшина, Алексей Одинг-Описание: 1924 год. В маленький городок Чуйск на границе с Китаем возвращается бывший золотопромышленник Астахов, сбежавший во время революции. Сопровождает его чекист Пашка Самсонов. Астахов должен указать, где было спрятано все его золото, при этом 25 процентов он оставляет себе, а остальное отдает государству. Правда, мало кто знает, что на самом деле Астахов приехал не столько за золотом, сколько за дочерью Машей, с которой ему пришлось расстаться семь лет назад. Астахов показывает тайник, мешки складируют в хранилище бывшего банка. Однако ночью драгоценный металл бесследно исчезает!-
Качество видео: HD TVRIP-AVC
Контейнер: MKV
Видео кодек: MPEG4 AVC
Аудио кодек: AC3
Видео: ~ 2000 Кбит/с, 1024x576, 25 кадр/с
Аудио: AC3, 2 ch, 192 Кбит/с, 48,0 КГц
Cубтитры: отсутствуют
Общее
Уникальный идентификатор : 172495744328497420989264827043651622761 (0x81C578D048B4F23697D146B8C4999769)
Полное имя : J:\Золотой транзит [1-2 серии из 2] (2016)\Золотой транзит.2016.HDTVRip-AVC.[pirat.ca]\01.Золотой транзит.2016.HDTVRip-AVC.[pirat.ca].mkv
Формат : Matroska
Версия формата : Version 2
Размер файла : 782 Мбайт
Продолжительность : 49 м.
Общий поток : 2194 Кбит/сек
Дата кодирования : UTC 2016-11-28 02:20:03
Программа кодирования : mkvmerge v7.8.0 ('River Man') 32bit built on Apr 3 2015 12:11:22
Библиотека кодирования : libebml v1.3.1 + libmatroska v1.4.2
Видео
Идентификатор : 1
Формат : AVC
Формат/Информация : Advanced Video Codec
Профиль формата : [email protected]
Параметр CABAC формата : Да
Параметр ReFrames формата : 9 кадров
Идентификатор кодека : V_MPEG4/ISO/AVC
Продолжительность : 49 м.
Битрейт : 2000 Кбит/сек
Ширина : 1024 пикселя
Высота : 576 пикселей
Соотношение сторон : 16:9
Режим частоты кадров : Постоянный
Частота кадров : 25,000 кадров/сек
Цветовое пространство : YUV
Субдискретизация насыщенности : 4:2:0
Битовая глубина : 8 бит
Тип развёртки : Прогрессивная
Бит/(Пиксели*Кадры) : 0.136
Размер потока : 698 Мбайт (89%)
Библиотека кодирования : x264 core 146 r2538 121396c
Настройки программы : cabac=1 / ref=9 / deblock=1:-2:-1 / analyse=0x3:0x113 / me=umh / subme=9 / psy=1 / psy_rd=1.00:0.15 / mixed_ref=1 / me_range=32 / chroma_me=1 / trellis=2 / 8x8dct=1 / cqm=0 / deadzone=21,11 / fast_pskip=0 / chroma_qp_offset=-3 / threads=6 / lookahead_threads=1 / sliced_threads=0 / nr=0 / decimate=1 / interlaced=0 / bluray_compat=0 / constrained_intra=0 / bframes=9 / b_pyramid=2 / b_adapt=2 / b_bias=0 / direct=1 / weightb=1 / open_gop=0 / weightp=2 / keyint=250 / keyint_min=25 / scenecut=40 / intra_refresh=0 / rc_lookahead=40 / rc=2pass / mbtree=1 / bitrate=2000 / ratetol=1.0 / qcomp=0.60 / qpmin=0 / qpmax=69 / qpstep=4 / cplxblur=20.0 / qblur=0.5 / vbv_maxrate=14000 / vbv_bufsize=14000 / nal_hrd=none / filler=0 / ip_ratio=1.40 / aq=2:1.00
Default : Да
Forced : Нет
Цветовой диапазон : Limited
Основные цвета : BT.709
Характеристики трансфера : BT.709
Коэффициенты матрицы : BT.709
Аудио
Идентификатор : 2
Формат : AC-3
Формат/Информация : Audio Coding 3
Расширение режима : CM (complete main)
Параметр Endianness формата : Big
Идентификатор кодека : A_AC3
Продолжительность : 49 м.
Вид битрейта : Постоянный
Битрейт : 192 Кбит/сек
Каналы : 2 канала
Расположение каналов : Front: L R
Частота : 48,0 КГц
Частота кадров : 31,250 кадров/сек (1536 spf)
Метод сжатия : С потерями
Размер потока : 68,5 Мбайт (9%)
Default : Да
Forced : Нет
Download / Скачать

Хотите скачать бесплатно? Зарегистрируйтесь на сайте (ссылка на регистрацию). Pirat.ca - самый быстрый торрент трекер в рунете!

Как скачивать  ·   Что такое торрент  ·   Рейтинг и ограничения

jofrei53

Флибустьер

Пост 03-Дек-2016 13:38 (спустя 14 часов)

[Q] 

somik Спасибо большое! Автору респект!!! Лови бочку
[Профиль]  [ЛС] 
Показать сообщения:    
Ответить на тему

Текущее время: Сегодня 19:41

Часовой пояс: GMT + 4



Вы не можете начинать темы
Вы не можете отвечать на сообщения
Вы не можете редактировать свои сообщения
Вы не можете удалять свои сообщения
Вы не можете голосовать в опросах
Вы не можете прикреплять файлы к сообщениям
Вы не можете скачивать файлы

▼ Вниз