Уважаемый Гость!
Вы можете поддержать проект и зарегистрироваться у наших партнеров - онлайн-стратегия MyLands. При регистрации в игре Вы получите код, который сможете активировать после регистрации на pirat.ca и получить 1000 дублонов.

Ваш код:
bf76b4fde44c7189cfb4d32d5b204facc1d6d492
 
     

Дом с лилиями / Сезон: 1 / Серии: 24 из 24 (Владимир Краснопольский) [2014 г., драма, WEB-DL, 720p]

Ответить на тему
 
Автор
Сообщение

Пост 24-Дек-2016 10:02

[Q] 

somik

-Дом с лилиями-- Производство: Россия, Украина
Жанр: драма
Год выпуска: 2014 г.
Продолжительность: 00:54:35
Режиссер: Владимир Краснопольский-В ролях: Сергей Маховиков, Дарья Мороз, Николай Добрынин, Олеся Судзиловская, Евгений Князев, Виктор Раков, Борис Химичев, Сергей Баталов, Михаил Жигалов, Анна Горшкова, Денис Матросов, Михаил Пшеничный, Олеся Жураковская, Валентина Лукащук, Алексей Фатеев, Елена Радевич, Андрей Франчук, Елена Турбал, Дария Боцманова, Василий Киба, Сергей Никитин, Виктория Билан, Михаил Романов, Мария Довгань, Диана Довгань-Описание: «Дом с лилиями» — семейная сага о судьбе героя-фронтовика Михаила Говорова, его любимых женщинах и детях, предоставляющая зрителю возможность проследить судьбу нескольких поколений советских и постсоветских людей, начиная с середины ХХ века до наших дней.
После окончания Великой Отечественной войны герой-фронтовик коммунист Михаил Говоров занимает высокую партийную должность в одном из областных центров и со всей семьей переезжает в загородный дом. На первых порах ни сам Говоров, ни члены его семье не обращают особого внимания на легенды, которыми окутано их новое место жительства. По преданию, на дом наложено проклятие, и ни его владельцы, ни их дети и внуки не будут счастливы в любви…-
Качество видео: WEB-DL
Контейнер: MKV
Стандарт разрешения: 720p
Видео кодек: MPEG4 AVC
Аудио кодек: AC3
Видео: 1280х720 (16:9), 25 fps, AVC MPEG-4 (x264), [email protected] ~ 1780 kbps avg, 0.076 bit/pixel
Аудио: 48 kHz, AC3, 2 ch, 192 kbps avg
Cубтитры: отсутствуют
Лучший русский сериал, который я смотрела.
Вот уж не думала, что моя первая рецензия на кинопоиске будет посвящена русскому сериалу! Но так уж случилось, что данная вещь меня зацепила с первой минуты и не отпускала до самых титров. Встречались, конечно, вещи, которые казались глупыми, злили, раздражали… Но в основном, могу сказать, что сериал удался.
Игра актеров просто поражает. Особенно хочу выделить Сергея Маховикова, его игра просто выше всяких похвал! Этот неподражаемый актер все эмоции, ощущения своего героя передает глазами, взглядом. Именно его игра, его глаза заставляли прослезиться на особо грустных моментах. Хочу отметить Олесю Судзиловскую. До этого сериала я как-то ровно к ней относилась, даже можно сказать, отрицательно, но здесь она просто молодец, очень эмоционально и достойно передает все то, что должно было исходить от ее героини. Порадовал Денис Матросов. Ну, и наконец, любимчик, наверное, всех телезрителей (а особенно, телезрительниц) — Котя. Очень обаятельный, веселый парень, потрясающая улыбка, оптимистичный настрой по жизни, и доброе, добрейшее сердце — его герой Константин просто не может не понравится!
Отдельное спасибо хочется сказать композитору. Музыка просто восхитительна. Именно она задает настрой всему сериалу, именно от нее в определенных моментах по телу бегут мурашки, и на глазах выступают слезы.
Отличный сериал. Пересмотрю не один раз в своей жизни. Спасибо создателям за доставленные ощущения.
10 из 10
Общее
Уникальный идентификатор : 187668451681494650555445669748236554095 (0x8D2FA10ACC590587A9E91D3214D30F6F)
Полное имя : F:\Дом с лилиями (2014)\Dom s Liliyami.2014.WEB-DL.720p.[pirat.ca]\01.Dom s Liliyami.2014.WEB-DL.720p.[pirat.ca].mkv
Формат : Matroska
Версия формата : Version 2
Размер файла : 695 Мбайт
Продолжительность : 54 м.
Общий поток : 1780 Кбит/сек
Название фильма : Dom.s.Liliyami.(01.seriya.iz.24).2014.WEB-DL.(720p)
Дата кодирования : UTC 2016-12-24 05:35:52
Программа кодирования : mkvmerge v5.3.0 ('I could have danced') built on Feb 9 2012 10:38:07
Библиотека кодирования : libebml v1.2.3 + libmatroska v1.3.0
Видео
Идентификатор : 1
Формат : AVC
Формат/Информация : Advanced Video Codec
Профиль формата : [email protected]
Параметр CABAC формата : Да
Параметр ReFrames формата : 1 кадр
Идентификатор кодека : V_MPEG4/ISO/AVC
Продолжительность : 54 м.
Битрейт : 1553 Кбит/сек
Ширина : 1280 пикселей
Высота : 720 пикселей
Соотношение сторон : 16:9
Режим частоты кадров : Постоянный
Частота кадров : 25,000 кадров/сек
Цветовое пространство : YUV
Субдискретизация насыщенности : 4:2:0
Битовая глубина : 8 бит
Тип развёртки : Прогрессивная
Бит/(Пиксели*Кадры) : 0.067
Размер потока : 606 Мбайт (87%)
Default : Да
Forced : Да
Аудио
Идентификатор : 2
Формат : AC-3
Формат/Информация : Audio Coding 3
Расширение режима : CM (complete main)
Параметр Endianness формата : Big
Идентификатор кодека : A_AC3
Продолжительность : 54 м.
Вид битрейта : Постоянный
Битрейт : 192 Кбит/сек
Каналы : 2 канала
Расположение каналов : Front: L R
Частота : 44,1 КГц
Частота кадров : 28,711 кадров/сек (1536 spf)
Метод сжатия : С потерями
Размер потока : 74,9 Мбайт (11%)
Язык : Russian
Default : Да
Forced : Да
Download / Скачать

Хотите скачать бесплатно? Зарегистрируйтесь на сайте (ссылка на регистрацию). Pirat.ca - самый быстрый торрент трекер в рунете!

Как скачивать  ·   Что такое торрент  ·   Рейтинг и ограничения

Hippopotam

Корсар

Пост 09-Янв-2017 03:58 (спустя 15 дней)

[Q] 

Клюква обыкновенная, развесистая Отказать
[Профиль]  [ЛС] 
Показать сообщения:    
Ответить на тему

Текущее время: Сегодня 12:18

Часовой пояс: GMT + 4



Вы не можете начинать темы
Вы не можете отвечать на сообщения
Вы не можете редактировать свои сообщения
Вы не можете удалять свои сообщения
Вы не можете голосовать в опросах
Вы не можете прикреплять файлы к сообщениям
Вы не можете скачивать файлы

▼ Вниз