Уважаемый Гость!
Вы можете поддержать проект и зарегистрироваться у наших партнеров - онлайн-стратегия MyLands. При регистрации в игре Вы получите код, который сможете активировать после регистрации на pirat.ca и получить 1000 дублонов.

Ваш код:
bf76b4fde44c7189cfb4d32d5b204facc1d6d492
 
     

Метод / Сезон: 1 / Серии: 16 из 16 (Юрий Быков) [2015 г., Психологический триллер, WEB-DL, 720p]

Ответить на тему
 
Автор
Сообщение

Пост 24-Дек-2016 22:31

[Q] 

somik

-Метод-- Производство: Россия
Жанр: Психологический триллер
Год выпуска: 2015 г.
Продолжительность: 00:52:00
Российская премьера: 18 октября 2015
Дата выхода DVD: 8 декабря 2015, «Мистерия Звука»
Режиссер: Юрий Быков-В ролях: Константин Хабенский, Паулина Андреева, Виталий Кищенко, Александр Цекало, Екатерина Дубакина, Александр Петров (II), Тимофей Трибунцев, Игорь Савочкин, Алексей Серебряков, Юрий Колокольников, Юрий Быков, Ян Цапник, Захар Кабанов, Наталья Унгард, Валентин Самохин, Сергей Беляев, Мария Бородина (II), Юлия Полынская, Олег Васильков, Яна Енжаева, Марина Правкина, Александра Лупашко, Марина Кондратьева (II), Сергей Романович, Александр Чередник, Владимир Яканин, Евгений Кулаков, Вера Панфилова, Николай Ширяев, Роман Смирнов (II), Виктор Цекало, Сергей Сосновский, Алексей Долгушин, Сергей Белов, Иван Добронравов, Арсений Перель, Александра Булычёва-Описание: Главный герой — Родион Меглин — загадочная и неординарная личность, следователь высочайшего уровня, который раскрывает самые сложные убийства. Он привык работать в одиночку, не раскрывая секреты своего метода.
Выпускница юрфака Есеня получает направление в отделение полиции, в котором служит Меглин, и становится его стажером. У девушки есть личные мотивы для работы с прославленным следователем — мать Есени убили, а отец скрывает важные детали произошедшего, но она не оставляет надежды выйти на след убийцы.
Работа с Меглиным становится для Есени тяжелым испытанием. Профессиональные успехи и странное поведение учителя заставляют девушку задуматься: если Родион так тонко чувствует маньяков и может предсказать их действия, не является ли он сам одним из них?-
Качество видео: WEB-DL
Контейнер: MKV
Стандарт разрешения: 720p
Видео кодек: MPEG4 AVC
Аудио кодек: AC3
Видео: ~ 3255 Кбит/с, 1280x720, 25,000 кадров/сек
Аудио: 48,0 КГц, AC3, 2 ch, 192 Кбит/с
Cубтитры: отсутствуют
Во время допроса Есени номер камеры соответствовал номеру серии.
IMDb: 7.40/10
Отличный детективный сериал.
Начала смотреть сериал «Метод» с самой первой премьерной серии, очень ждала, когда же наконец состоится показ. Состоит сериал из 16 серий, по телевизору предлагается к просмотру по две серии раз в неделю. Я думаю, это хороший ход, потому что есть время осмыслить полученную информацию и не расшатать психику Плюс отсутствует затянутость сериала на несколько сезонов и множество серий, поэтому в «Методе» все действия происходят лаконично и динамично.
О сюжете: в сериале присутствует два главных героя: Родион Меглин — таинственный следователь, который как орешки колет самые сложные и запутанные дела, и Есеня Стеклова — молодая девушка-выпускница юридического института, которая становится стажером Меглина. Вместе они раскрывают страшные преступления и находят виновных в убийствах неповинных людей.
Этот сериал — сенсация. Он не похож на другие. Яркий, органичный в сочетании «картинка-звук-диалоги», вводит в состояние шока с самой первой серии. «Метод» полностью оправдывает ограничение 18+, но этот сериал — не «чернуха», а действительно очень удачно отснятая и продуманная режиссерская и актерская работа. Каждая серия — загадка, которую хочется разгадать вместе с главными героями.
На мой взгляд, этот сериал нечто большее, чем просто «страшная история на ночь». Если воспринимать сериал глазами-ушами и доносить полученную информацию до мозга, то «Метод» может многому научить. В сериале показывают повадки маньяков, рассказывают как и на что следует обращать внимание. Каждая серия — урок для каждого из нас. Но зрителю не преподносят всё на блюдечке — придется кое-что додумывать самим и выносить из увиденного полезную информацию.
Также хочется отметить, что истории, показанные в сериале, не выдумка, а реальные случаи. К сожалению, как бы ни было страшно, это наша жизнь. И только мы сами можем изменить в ней что-то в лучшую сторону, обезопасив сами себя. Из сериала можно почерпнуть, что следует обращать внимание на тех, кто рядом, пусть это и незнакомые нам люди. Быть внимательными к своим детям.
Рекомендую «Метод» к просмотру, он точно не оставит Вас равнодушным. Попытайтесь проникнуться идеей сериала, погрузитесь в его атмосферу, задумайтесь о своих страхах, включите на максимум логику и дедукцию, представьте себя вместе с главными героями и, возможно, Вы откроете для себя свой метод…
10 из 10
Общее
Уникальный идентификатор : 245312426368520329464455768361435890909 (0xB88D746BA1EE24F98731605E7C1F84DD)
Полное имя : F:\Метод (2015)\Metod.2015.WEB-DL.720p.[pirat.ca]\Metod.(01.seriya).2015.WEB-DL.720p.[pirat.ca].mkv
Формат : Matroska
Версия формата : Version 2
Размер файла : 1013 Мбайт
Продолжительность : 47 м.
Общий поток : 3255 Кбит/сек
Дата кодирования : UTC 2015-10-20 01:34:59
Программа кодирования : mkvmerge v5.8.0 ('No Sleep / Pillow') built on Sep 2 2012 15:37:04
Библиотека кодирования : libebml v1.2.3 + libmatroska v1.3.0
Видео
Идентификатор : 1
Формат : AVC
Формат/Информация : Advanced Video Codec
Профиль формата : [email protected]
Параметр CABAC формата : Да
Параметр ReFrames формата : 5 кадров
Идентификатор кодека : V_MPEG4/ISO/AVC
Продолжительность : 47 м.
Битрейт : 3000 Кбит/сек
Ширина : 1280 пикселей
Высота : 720 пикселей
Соотношение сторон : 16:9
Режим частоты кадров : Постоянный
Частота кадров : 25,000 кадров/сек
Цветовое пространство : YUV
Субдискретизация насыщенности : 4:2:0
Битовая глубина : 8 бит
Тип развёртки : Прогрессивная
Бит/(Пиксели*Кадры) : 0.119
Размер потока : 928 Мбайт (92%)
Язык : Russian
Default : Да
Forced : Да
Аудио
Идентификатор : 2
Формат : AC-3
Формат/Информация : Audio Coding 3
Расширение режима : CM (complete main)
Параметр Endianness формата : Big
Идентификатор кодека : A_AC3
Продолжительность : 47 м.
Вид битрейта : Постоянный
Битрейт : 192 Кбит/сек
Каналы : 2 канала
Расположение каналов : Front: L R
Частота : 48,0 КГц
Частота кадров : 31,250 кадров/сек (1536 spf)
Метод сжатия : С потерями
Размер потока : 64,9 Мбайт (6%)
Язык : Russian
Default : Да
Forced : Да
Download / Скачать

Хотите скачать бесплатно? Зарегистрируйтесь на сайте (ссылка на регистрацию). Pirat.ca - самый быстрый торрент трекер в рунете!

Как скачивать  ·   Что такое торрент  ·   Рейтинг и ограничения

Раемия

Флибустьер

Пост 25-Дек-2016 01:45 (спустя 3 часа)

[Q] 

Клевый сериал,когда уже выйдет 2-й сезон... Всем качать!!! Автору респект!!!

_________________
Любите кроликов!!!…и они отплатят вам тем же…
[Профиль]  [ЛС] 

Hippopotam

Корсар

Пост 09-Янв-2017 03:49 (спустя 15 дней)

[Q] 

Сериал отличный Одобрямс! Лови бочку
[Профиль]  [ЛС] 
Показать сообщения:    
Ответить на тему

Текущее время: Сегодня 12:38

Часовой пояс: GMT + 4



Вы не можете начинать темы
Вы не можете отвечать на сообщения
Вы не можете редактировать свои сообщения
Вы не можете удалять свои сообщения
Вы не можете голосовать в опросах
Вы не можете прикреплять файлы к сообщениям
Вы не можете скачивать файлы

▼ Вниз