Уважаемый Гость!
Вы можете поддержать проект и зарегистрироваться у наших партнеров - онлайн-стратегия MyLands. При регистрации в игре Вы получите код, который сможете активировать после регистрации на pirat.ca и получить 1000 дублонов.

Ваш код:
bf76b4fde44c7189cfb4d32d5b204facc1d6d492
 
     

Саранча / Сезон: 1 / Серии: 4 из 4 (Егор Баранов) [2015 г., триллер, WEB-DL, 1080p]

Ответить на тему
 
Автор
Сообщение

Пост 24-Дек-2016 23:35

[Q] 

somik

-Саранча-- Производство: Россия, Продюсерский центр "Среда"
Жанр: триллер
Год выпуска: 2015 г.
Продолжительность: 00:52:00
Мировая премьера: 5 ноября 2015
Российская премьера: 13 марта 2015
Режиссер: Егор Баранов-В ролях: Пётр Фёдоров, Паулина Андреева, Дмитрий Шевченко, Екатерина Волкова, Евгения Дмитриева, Максим Пинскер, Алексей Горбунов, Евгений Стычкин, Александр Голубков, Иван Щенин-Описание: У них не было ничего общего: Артем — простой парень из провинции, работяга и поэт, Лера — столичная штучка, чью жизнь распланировали родители. Но банальный курортный роман оборачивается обжигающей страстью, которая ломает судьбы. И хотя Лера выходит замуж за друга отца, а Артем назло женится на богатой даме постарше, их безумное влечение рушит все барьеры. Жажда плоти невыносима, и для приговоренных друг к другу любовников уже не существует ни правил, ни опасности, ни страха. И когда разрушительная страсть обагряется кровью, они уже не в силах остановиться…-
Качество видео: WEB-DL
Контейнер: MKV
Стандарт разрешения: 1080p
Видео кодек: MPEG4 AVC
Аудио кодек: AC3
Видео: 1920x1080 (16:9), ~4000 Kbps, 25 fps
Аудио: 48,0 kHz, AC3, 2 ch, 192 Kbps, CBR
Cубтитры: отсутствуют
Общее
Уникальный идентификатор : 174117388055689737994146417834989136601 (0x82FDCA05B386A96D82894293C9372AD9)
Полное имя : F:\Саранча (2015) WEB-DLRip\Саранча.2015.WEB-DLRip.1080.[pirat.ca]\Саранча - 01 серия.mkv
Формат : Matroska
Версия формата : Version 2
Размер файла : 1,41 Гбайт
Продолжительность : 48 м.
Режим общего битрейта : Переменный
Общий поток : 4196 Кбит/сек
Дата кодирования : UTC 2016-03-19 18:19:40
Программа кодирования : mkvmerge v7.8.0 ('River Man') 32bit built on Apr 3 2015 12:11:22
Библиотека кодирования : libebml v1.3.1 + libmatroska v1.4.2
Видео
Идентификатор : 1
Формат : AVC
Формат/Информация : Advanced Video Codec
Профиль формата : [email protected]
Параметр CABAC формата : Да
Параметр ReFrames формата : 3 кадра
Идентификатор кодека : V_MPEG4/ISO/AVC
Продолжительность : 48 м.
Вид битрейта : Переменный
Битрейт : 4000 Кбит/сек
Максимальный битрейт : 40,0 Мбит/сек
Ширина : 1920 пикселей
Высота : 1080 пикселей
Соотношение сторон : 16:9
Режим частоты кадров : Постоянный
Частота кадров : 25,000 кадров/сек
Цветовое пространство : YUV
Субдискретизация насыщенности : 4:2:0
Битовая глубина : 8 бит
Тип развёртки : Прогрессивная
Бит/(Пиксели*Кадры) : 0.077
Размер потока : 1,32 Гбайт (93%)
Библиотека кодирования : x264 core 142 r2389 956c8d8
Default : Да
Forced : Нет
Цветовой диапазон : Limited
Основные цвета : BT.709
Характеристики трансфера : BT.709
Коэффициенты матрицы : BT.709
Аудио
Идентификатор : 2
Формат : AC-3
Формат/Информация : Audio Coding 3
Расширение режима : CM (complete main)
Параметр Endianness формата : Big
Идентификатор кодека : A_AC3
Продолжительность : 48 м.
Вид битрейта : Постоянный
Битрейт : 192 Кбит/сек
Каналы : 2 канала
Расположение каналов : Front: L R
Частота : 44,1 КГц
Частота кадров : 28,711 кадров/сек (1536 spf)
Метод сжатия : С потерями
Размер потока : 66,1 Мбайт (5%)
Default : Да
Forced : Нет
Download / Скачать

Хотите скачать бесплатно? Зарегистрируйтесь на сайте (ссылка на регистрацию). Pirat.ca - самый быстрый торрент трекер в рунете!

Как скачивать  ·   Что такое торрент  ·   Рейтинг и ограничения

zvernight

Флибустьер

Пост 25-Дек-2016 06:44 (спустя 7 часов)

[Q] 

рейтинга нет, отзывов нет, однако постер с английским названием говорит о том, что авторы достаточно амбициозны, а скриншоты намекают на то что должны быть возрастные ограничения.
Ку три раза
Че как оно?
[Профиль]  [ЛС] 

kolom

Лоцман

Пост 25-Дек-2016 14:34 (спустя 7 часов)

[Q] 

Смотрел фильм и мне понравился. Я так думаю режиссёр хотел показать больше и решили сделать сериал
[Профиль]  [ЛС] 

MaXoR

Гроза морей

1533

Пост 25-Дек-2016 15:13 (спустя 39 минут)

[Q] 

У ПЦ "Среда" в основном неплохие сериалы выходят. Оба сезона Мажора хороши, этот тоже должен быть неплох.

_________________
Живы будем - не помрем!
[Профиль]  [ЛС] 

kinstintin

Гроза морей

Пост 25-Дек-2016 17:22 (спустя 2 часа 8 минут)

[Q] 

впереди праздники, пригодится скоротать время дома)))
[Профиль]  [ЛС] 

Hippopotam

Корсар

Пост 09-Янв-2017 03:48 (спустя 14 дней)

[Q] 

Произведение искусства на троечку
[Профиль]  [ЛС] 
Показать сообщения:    
Ответить на тему

Текущее время: Сегодня 12:40

Часовой пояс: GMT + 4



Вы не можете начинать темы
Вы не можете отвечать на сообщения
Вы не можете редактировать свои сообщения
Вы не можете удалять свои сообщения
Вы не можете голосовать в опросах
Вы не можете прикреплять файлы к сообщениям
Вы не можете скачивать файлы

▼ Вниз