Уважаемый Гость!
Вы можете поддержать проект и зарегистрироваться у наших партнеров - онлайн-стратегия MyLands. При регистрации в игре Вы получите код, который сможете активировать после регистрации на pirat.ca и получить 1000 дублонов.

Ваш код:
d49a3625bbdee1b82b14274f97c375f8b2b2ee4c
 
     

Отель Элеон / Сезон: 1 / Серии: 20 из 20 (Антон Федотов, Антон Маслов, Екатерина Забулонская) [2016 г., комедия, WEB-DL, 720p]

Ответить на тему
 
Автор
Сообщение

Пост 30-Дек-2016 14:17

[Q] 

somik

-Отель Элеон-- Производство: Россия, Украина
Жанр: комедия
Год выпуска: 2016 г.
Продолжительность: 00:24:25
Российская премьера: 28 ноября 2016
Режиссер: Антон Федотов, Антон Маслов, Екатерина Забулонская-В ролях: Григорий Сиятвинда, Милош Бикович, Елена Ксенофонтова, Сергей Лавыгин, Виктор Хориняк, Ольга Кузьмина, Екатерина Вилкова, Диана Пожарская, Тимур Еремеев, Рина Гришина, Данила Рассомахин, Павел Рассомахин, Анна Бегунова, Владислав Ветров, Сергей Подольный, Филипп Бледный, Олег Гаас, Ольга Веникова, Анна Барсукова, Руслан Ягудин, Анна Чернович, Екатерина Коновалова, Александра Кузенкина, Наталья Щукина-Описание: Шеф-повар Виктор Баринов ушел на пенсию, а Элеонора Андреевна встретила мужчину своей мечты — на этом закончился шестой сезон «Кухни». Но жизнь продолжается: Михаил Джекович по-прежнему отвечает за порядок в «Элеоне», шеф-поваром ресторана Victor назначили Сеню, а Настя получает неожиданное повышение, что совсем не радует Костю. Все идет своим чередом, пока отель не возглавляет Павел — непутевый племянник прежней хозяйки. Чтобы выполнить нешуточное условие тети, он переманивает из Брюсселя суперменеджера Софию Толстую. Новая управляющая устанавливает свои правила, и теперь отель ждут серьезные перемены, которые переворачивают с ног на голову не только привычный уклад «Элеона», но и личные планы героев.-
Качество видео: WEB-DL
Контейнер: MKV
Стандарт разрешения: 720p
Видео кодек: MPEG4 AVC
Аудио кодек: AC3
Видео: 2500 Кбит/с, 1280x720, 25,000 кадров/сек
Аудио: 48,0 kHz, AC3, 2 ch, 192 Кбит/с
Cубтитры: отсутствуют
В 12 серии 1 сезона Илья Любимов играет роль бывшего мужа героини Екатерины Вилковой. В реальной жизни они являются действующими супругами.
Достойный спин-офф
Никогда не забуду сериал «Кухня». Он оставил очень яркий и позитивный отпечаток в моей куриной памяти. Иными словами, я запоминаю позитивное или негативное. «Кухня» был очень большим позитивом, поэтому он отпечатался у меня в мозгу. Особенное первые три сезона. Потом он стал более пошлым. Не суть. Ибо сейчас речь не об вышеуказанном сериале, а об его ответвлении — «Отель Элеон».
Итак, «Отель Элеон» — безусловно достойное продолжение культового сериала про поваров. Есть, конечно, ряд отличий от оригинала. Теперь все ситуёвины происходят только в вестибюле, коридорах и номерах отеля, и около самого здания отеля — на улице. Есть ещё квартирные сцены. Кухню, понятное дело, вычеркнули, потому что там нету никого родного, кроме раздолбая Сени, который, кстати, ничуть не поменялся после «Кухни». И это радует! Костя и Настя тоже не поменялись. Костя всё такой же простой и отзывчивый бармен, а Настя… с ней есть одно изменение — теперь она заняла место, которое когда-то принадлежало Виктории Лавровой. Даже присутствует «интриганка», которая пыталась увести парня у дочки шеф-повара.
Хотелось бы отметить отличный дуэт в лице Екатерины Вилковой и Григория Сиятвинда. Их персонажи отлично вписались в сериал. Интересная сюжетная линия получилась у девушки-каратистки, которую играет Диана Пожарская. Единственный раздражающий персонаж — избалованный хозяин отеля. Я понимаю, что у актера такой образ. И он отлично играет свою роль.
Музыкальное сопровождение почти не поменялось. Или вообще не поменялось?… Но это не критично. Ещё появилась общая сюжетная линия, которая раскроется в конце. Двое бандитов, которые «профукали» бабки — это креативно. А креативность — это хорошо. Не буду ворчать и бухтеть, потому что нету причин для этого. В этом сериале всего в меру.
Стоит ли его смотреть? Да, стоит! Особенно фанатам «Кухни»!
Достойный спин-офф!
10 из 10
Общее
Уникальный идентификатор : 228436797047380307090324113577275192408 (0xABDB53A812C7B4C5B74C408277667458)
Полное имя : J:\Отель Элеон [1 сезон 1-21 серии из 21] (2016) WEB-DLRip-AVC\Отель Элеон.2016.WEB-DL.720p.[pirat.ca]\01.Отель Элеон 2016.WEB-DL.(720p).[pirat.ca].mkv
Формат : Matroska
Версия формата : Version 2
Размер файла : 539 Мбайт
Продолжительность : 27 м.
Общий поток : 2721 Кбит/сек
Дата кодирования : UTC 2016-11-29 19:34:52
Программа кодирования : mkvmerge v4.4.0 ('Die Wiederkehr') built on Oct 31 2010 21:52:48
Библиотека кодирования : libebml v1.0.0 + libmatroska v1.0.0 / Lavf57.14.100
Видео
Идентификатор : 1
Формат : AVC
Формат/Информация : Advanced Video Codec
Профиль формата : [email protected]
Параметр CABAC формата : Да
Параметр ReFrames формата : 4 кадра
Идентификатор кодека : V_MPEG4/ISO/AVC
Продолжительность : 27 м.
Битрейт : 2500 Кбит/сек
Ширина : 1280 пикселей
Высота : 720 пикселей
Соотношение сторон : 16:9
Режим частоты кадров : Постоянный
Частота кадров : 25,000 кадров/сек
Цветовое пространство : YUV
Субдискретизация насыщенности : 4:2:0
Битовая глубина : 8 бит
Тип развёртки : Прогрессивная
Бит/(Пиксели*Кадры) : 0.109
Размер потока : 490 Мбайт (91%)
Библиотека кодирования : x264 core 140
Язык : English
Default : Да
Forced : Нет
DURATION : 00:27:40.640000000
HANDLER_NAME : VideoHandler
Аудио
Идентификатор : 2
Формат : AC-3
Формат/Информация : Audio Coding 3
Расширение режима : CM (complete main)
Параметр Endianness формата : Big
Идентификатор кодека : A_AC3
Продолжительность : 27 м.
Вид битрейта : Постоянный
Битрейт : 192 Кбит/сек
Каналы : 2 канала
Расположение каналов : Front: L R
Частота : 48,0 КГц
Частота кадров : 31,250 кадров/сек (1536 spf)
Метод сжатия : С потерями
Размер потока : 38,0 Мбайт (7%)
Default : Да
Forced : Да
Download / Скачать

Хотите скачать бесплатно? Зарегистрируйтесь на сайте (ссылка на регистрацию). Pirat.ca - самый быстрый торрент трекер в рунете!

Как скачивать  ·   Что такое торрент  ·   Рейтинг и ограничения

Показать сообщения:    
Ответить на тему

Текущее время: Сегодня 19:46

Часовой пояс: GMT + 4



Вы не можете начинать темы
Вы не можете отвечать на сообщения
Вы не можете редактировать свои сообщения
Вы не можете удалять свои сообщения
Вы не можете голосовать в опросах
Вы не можете прикреплять файлы к сообщениям
Вы не можете скачивать файлы

▼ Вниз