Уважаемый Гость!
Вы можете поддержать проект и зарегистрироваться у наших партнеров - онлайн-стратегия MyLands. При регистрации в игре Вы получите код, который сможете активировать после регистрации на pirat.ca и получить 1000 дублонов.

Ваш код:
b35b3ec45a7bd3f86315766471edc285be832af4
 
     

Секунда до... / Сезон: 1 / Серии: 8 из 8 (Алексей Колмогоров) [2007 г., фантастика, триллер, приключения, DVDRip]

Ответить на тему
 
Автор
Сообщение

Пост 31-Дек-2016 21:16

[Q] 

somik

-Секунда до...-- Производство: Россия
Жанр: фантастика, триллер, приключения
Год выпуска: 2007 г.
Продолжительность: 00:52:04
Режиссер: Алексей Колмогоров-В ролях: Нодар Мгалоблишвили,Константин Стрельников, Олег Тактаров, Денис Харитонов , Наталья Швец, Каролина Ашион, Лев Борисов, Екатерина Бренер, Кирилл Бурдихин, Евгения Бурдихина, Николай Гусев, Илья Иосифов, Наталья Парцхаладзе, Игорь Скляр, Людмила Шмелева-Описание: Преуспевающий бизнесмен Олег узнает, что его бывшая возлюбленная умерла при родах. Теперь он должен признать своего ребенка. Олег не готов сделать этот шаг. Он напивается и попадает в автомобильную аварию…
Герой должен был погибнуть, но в последнюю секунду ему дается шанс: Олег становится одним из «ангелов добра» в команде таких же, как он — однажды принявших неверное решение. Сержанту, игроку, мошеннице, невесте, мальчику-мажору и, наконец, Олегу предоставляется возможность изменить свою судьбу и вернуться назад к живым…-
Качество видео: DVDRip
Контейнер: AVI
Видео кодек: DivX
Аудио кодек: MP3
Видео: 640x352 (1.82:1), 25 fps, DivX Codec 6.6.1 1362 kbps avg, 0.24 bit/pixel
Аудио: 44.100 kHz, MPEG Layer 3, 2 ch, 128.00 kbps avg
Cубтитры: отсутствуют
Фильмы и сериалы отечественного производства никогда не вызывали у меня восхищения, особенно если дело касается фантастики, ведь этот жанр — мой любимый. Но решив посмотреть сериал «Секунда до», я ни капельки не разочаровалась.
Да, можно сказать, что сюжет стандартен: сражение добра и зла, причем на стороне добра люди, которых уж точно не назовешь святыми. Но несмотря на старый добрый сюжет, сериал просто захватывает дух!
Разные герои, совершенно не похожие друг на друга, и замечательно сыгравшие актеры — вот главный плюс этого сериала. Особенное впечатление на меня произвел главный злодей. Наш, русский, злодей. Дьявол из фильма напоминает героя народных сказок — Кощея Бессмертного, не лишенный юмора и харизмы, от чего только выигрывает. Вообще, юмор в сериале заслуживает отдельного упоминания, над многими моментами я смеялась до смерти. Также не могу не сказать и о волшебной музыке, которой наполнен сериал.
Что касается минусов… На самом деле их не много, это все мелочи, о которых не хочется упоминать, ведь главное, что впечатление от просмотра сериала незабываемое.
10 из 10
Общее
Полное имя : D:\D\Секунда до\Секунда до....2007.[pirat.ca]\Ssekunda.Do..01.avi
Формат : AVI
Формат/Информация : Audio Video Interleave
Размер файла : 559 Мбайт
Продолжительность : 52 м.
Общий поток : 1501 Кбит/сек
Программа кодирования : VirtualDubMod 1.5.10.2 (build 2542/release)
Видео
Идентификатор : 0
Формат : MPEG-4 Visual
Параметр BVOP формата : 1
Параметр QPel формата : Нет
Параметр GMC формата : Без точки перехода
Параметр матрицы формата : Default (H.263)
Режим смешивания : Сжатый битовый поток
Идентификатор кодека : DX50
Идентификатор кодека/Подсказка : DivX 5
Продолжительность : 52 м.
Битрейт : 1363 Кбит/сек
Ширина : 640 пикселей
Высота : 352 пикселя
Соотношение сторон : 16:9
Частота кадров : 25,000 кадров/сек
Цветовое пространство : YUV
Субдискретизация насыщенности : 4:2:0
Битовая глубина : 8 бит
Тип развёртки : Прогрессивная
Метод сжатия : С потерями
Бит/(Пиксели*Кадры) : 0.242
Размер потока : 508 Мбайт (91%)
Библиотека кодирования : DivX 6.6.1.4
Аудио
Идентификатор : 1
Формат : MPEG Audio
Версия формата : Version 1
Профиль формата : Layer 3
Режим : Joint stereo
Идентификатор кодека : 55
Идентификатор кодека/Подсказка : MP3
Продолжительность : 52 м.
Вид битрейта : Постоянный
Битрейт : 128 Кбит/сек
Каналы : 2 канала
Частота : 44,1 КГц
Метод сжатия : С потерями
Размер потока : 47,7 Мбайт (9%)
Выравнивание : Разделение по промежуткам
Продолжительность промежутка : 40 мс. (1,00 видеокадр)
Время предзагрузки промежутка : 500 мс.
Download / Скачать

Хотите скачать бесплатно? Зарегистрируйтесь на сайте (ссылка на регистрацию). Pirat.ca - самый быстрый торрент трекер в рунете!

Как скачивать  ·   Что такое торрент  ·   Рейтинг и ограничения

Показать сообщения:    
Ответить на тему

Текущее время: Сегодня 18:55

Часовой пояс: GMT + 4



Вы не можете начинать темы
Вы не можете отвечать на сообщения
Вы не можете редактировать свои сообщения
Вы не можете удалять свои сообщения
Вы не можете голосовать в опросах
Вы не можете прикреплять файлы к сообщениям
Вы не можете скачивать файлы

▼ Вниз