Уважаемый Гость!
Вы можете поддержать проект и зарегистрироваться у наших партнеров - онлайн-стратегия MyLands. При регистрации в игре Вы получите код, который сможете активировать после регистрации на pirat.ca и получить 1000 дублонов.

Ваш код:
6ce94c87b14c77f4c9d9415fb160accb369c92d9
 
     

Склифосовский / Сезон: 4 / Серии: 24 из 24 (Юлия Краснова) [2015 г., драма, мелодрама, WEB-DLRip-AVC]

Ответить на тему
 
Автор
Сообщение

Пост 10-Янв-2017 03:45

[Q] 

somik

-Склифосовский-- Производство: Россия, Кинокомпания "Русское"
Жанр: драма, мелодрама
Год выпуска: 2015 г.
Продолжительность: 00:45:00
Мировая премьера: 6 апреля 2015
Режиссер: Юлия Краснова-В ролях: Максим Аверин, Александр Сирин, Мария Куликова, Надежда Горелова, Дмитрий Миллер, Елена Яковлева, Ольга Павловец, Антон Эльдаров, Анна Якунина, Андрей Барило, Константин Юшкевич, Ольга Карева, Светлана Нехороших, Владимир Жеребцов, Александр Соколовский, Екатерина Травова, Александр Чернявский, Марина Могилевская, Евгения Дмитриева, Александр Хованский, Софья Хилькова, Елена Папанова-Описание: Фильм о сложных, драматичных, подчас героических буднях врачей главного института скорой помощи — знаменитого «Склифа». Их работа — испытание на прочность, каждый день они дают кому-то вторую жизнь…
В центре истории — непростые отношения хирурга Олега Брагина, блестящего врача, умного, жесткого и харизматичного, но давно отчаявшегося найти в жизни что-то настоящее, кроме работы, и начальницы Ларисы — сумевшей сквозь цинизм Брагина разглядеть потерянного в жизни и одинокого человека…-
Качество видео: WEB-DLRip-AVC
Контейнер: MKV
Видео кодек: MPEG4 AVC
Аудио кодек: AC3
Видео: 1024x576, 2160 кб/c, 25,000 кадров/сек
Аудио: АС3, 2 ch, 192 кб/c, 44,1 КГц
Cубтитры: отсутствуют
Актерский состав сериала перед началом съемок тренировался накладывать швы на бройлерных курицах.
Беременность Эммы не фиктивная. Во время съемок актриса Лаура Кеосаян действительно ждала ребенка.
Для сериала был изготовлен специальный силиконовый манекен, который работал «телом» и служил актерам во время съемок в операционной. Всего на манекене «провели» более 80 операций.
Специально для сериала было сшито более 500 костюмов. Кроме того, за время съемок было использовано более 1000 пар перчаток, 800 медицинских масок, а 100 халатов были попросту испорчены – их залили литрами искусственной крови.
За тем, чтобы актеры «резали» и «шили» в кадре, как профессионалы, внимательно наблюдали консультанты из НИИ им. Склифосовского, настоящие хирурги, которые дневали и ночевали на съемках почти два месяца.
Медицинские шапочки для доктора Брагина специально заказывали в Америке.
Во время съемок со спецгримом — порезы, ушибы, открытые переломы, операции — использовали специальный киносиликон. Однажды киносилион закончился по всей Москве, и, чтобы не останавливать съемочный процесс, гримерам сериала пришлось купить силиконовую продукцию в секс-шопе и переплавить ее.
Золотой орел, 2014 год
Номинации (1):
Лучший телевизионный сериал (11 серий и более)
Жизнь и смерть идут параллельным курсом!
Максима Аверина много не бывает. Это конечно ирония, но не злая. Да, он везде и всюду: и на нтв заправляет Новым Годом и в 100 и более сериях «Глухаря» засветился. И вот теперь добрался до роли врача. Кому-то его протокольная мордочка приелась, допускаю сей факт. Но, господа, не будем забывать, что актёр комедийный, играющий в Театре Сатиры и надо сказать не самый плохой мягко выражаясь. По крайней мере к своему делу подходит с душой, а следовательно результат на выходе получается весьма достойный.
Сериал «Склифосовский» получился очень приличным. Злые языки несомненно сказали бы и скажут, что ничего, пипл дескать схавает. На то они и злые языки. Я и есть тот самый пипл. Без разного рода эпитетов и памфлетов могу сказать за себя:мне это кино понравилось. Главная мысль:спасение человеческой жизни. Богат ты или беден, но неприятные неожиданности подстерегают нас на каждом шагу. Никто ни отчего не застрахован, тем более от внезапного ДТП, коих в современном мире и при резко растущем числе авто, становится всё больше и больше. Естественно кто-то должен спасать людей, подвергшихся разным несчастным случаям. И кому как не врачам это делать. Им, как говорится и карты в руки. И работники сериала «Склифосовский» до меня донесли, как, зачем, и почему.
В сериале нет одного дела. одного запутанного эпизода. Он разбит на разные истории, но каждая по своему интересна. В каждой есть свой элемент и комизма и трагизма, что поделать от великого до смешного, шажочек-то махонький. И с точки зрения вскрытия медицинских терминов и понятий, так сказать, чтобы расширить свой кругозор, необязательно включать «Доктора Хауса», не умаляя достоинств Хью Лори.
Со счётов сбрасывать не стоит, что помимо Макса Аверина в фильме заняты очень хорошие артисты. Взять того же Владимира Жеребцова, который играет молодого врача Костю. Очень хорошая работа, мастерская и отточеная, как тот самый нож, коим приходится оперировать. А молодой врач Салам, которого исполнил Антон Эльдаров разве не тот человек, которому вы бы доверили свою жизнь в тяжёлый момент ?Безусловно тот. А анестезиолог и по совместительству подруга Олега Брагина (Максим Аверин) Эмма (Лаура Кеосаян) ?Характерная роль и Лаура просто великолепна!Пару добрых слов стоит сказать и в адрес Ольги Красько. Её Лариса Куликова женщина сомневающаяся в своей личной жизни, но как врач-то бесспорно талантливая. В среде профессионалов зачастую так и бывает.
Краткое резюме: отличный фильм про людей, про нас с вами, про нашу жизнь, реальный и правдивый.
10 из 10
Общее
Уникальный идентификатор : 180226087968491389446473428097098832973 (0x8796482E63648F01AF2851C2469BDC4D)
Полное имя : F:\Склифосовский [S04] (2015) WEB-DLRip-AVC\Sklifosovskij.S04.2015.WEB-DLRip-AVC.[pirat.ca]\01.Sklifosovskij.S04.2015.WEB-DLRip-AVC.[pirat.ca].mkv
Формат : Matroska
Версия формата : Version 4 / Version 2
Размер файла : 750 Мбайт
Продолжительность : 44 м.
Общий поток : 2339 Кбит/сек
Дата кодирования : UTC 2015-05-31 19:21:53
Программа кодирования : mkvmerge v6.1.0 ('Old Devil') built on Mar 4 2013 09:10:42
Библиотека кодирования : libebml v1.3.0 + libmatroska v1.4.0
Видео
Идентификатор : 1
Формат : AVC
Формат/Информация : Advanced Video Codec
Профиль формата : [email protected]
Параметр CABAC формата : Да
Параметр ReFrames формата : 8 кадров
Идентификатор кодека : V_MPEG4/ISO/AVC
Продолжительность : 44 м.
Битрейт : 2148 Кбит/сек
Ширина : 1024 пикселя
Высота : 576 пикселей
Соотношение сторон : 16:9
Режим частоты кадров : Постоянный
Частота кадров : 25,000 кадров/сек
Цветовое пространство : YUV
Субдискретизация насыщенности : 4:2:0
Битовая глубина : 8 бит
Тип развёртки : Прогрессивная
Бит/(Пиксели*Кадры) : 0.146
Размер потока : 674 Мбайт (90%)
Библиотека кодирования : x264 core 138 r2358 9e941d1
Настройки программы : cabac=1 / ref=8 / deblock=1:-2:-2 / analyse=0x3:0x133 / me=umh / subme=11 / psy=1 / psy_rd=1.00:0.10 / mixed_ref=1 / me_range=48 / chroma_me=1 / trellis=2 / 8x8dct=1 / cqm=0 / deadzone=21,11 / fast_pskip=0 / chroma_qp_offset=-3 / threads=6 / lookahead_threads=1 / sliced_threads=0 / nr=0 / decimate=1 / interlaced=0 / bluray_compat=0 / constrained_intra=0 / bframes=8 / b_pyramid=2 / b_adapt=1 / b_bias=0 / direct=3 / weightb=1 / open_gop=0 / weightp=2 / keyint=250 / keyint_min=25 / scenecut=40 / intra_refresh=0 / rc_lookahead=40 / rc=2pass / mbtree=1 / bitrate=2148 / ratetol=1.0 / qcomp=0.60 / qpmin=0 / qpmax=69 / qpstep=4 / cplxblur=20.0 / qblur=0.5 / ip_ratio=1.40 / aq=1:1.00
Язык : Russian
Default : Да
Forced : Да
Аудио
Идентификатор : 2
Формат : AC-3
Формат/Информация : Audio Coding 3
Расширение режима : CM (complete main)
Параметр Endianness формата : Big
Идентификатор кодека : A_AC3
Продолжительность : 44 м.
Вид битрейта : Постоянный
Битрейт : 192 Кбит/сек
Каналы : 2 канала
Расположение каналов : Front: L R
Частота : 44,1 КГц
Частота кадров : 28,711 кадров/сек (1536 spf)
Метод сжатия : С потерями
Размер потока : 61,6 Мбайт (8%)
Язык : Russian
Default : Да
Forced : Да
Меню
00:00:00.000 : en:Chapter 01
00:05:00.000 : en:Chapter 02
00:10:00.000 : en:Chapter 03
00:15:00.000 : en:Chapter 04
00:20:00.000 : en:Chapter 05
00:25:00.000 : en:Chapter 06
00:30:00.000 : en:Chapter 07
00:35:00.000 : en:Chapter 08
00:40:00.000 : en:Chapter 09
00:45:00.000 : en:Chapter 10
Download / Скачать

Хотите скачать бесплатно? Зарегистрируйтесь на сайте (ссылка на регистрацию). Pirat.ca - самый быстрый торрент трекер в рунете!

Как скачивать  ·   Что такое торрент  ·   Рейтинг и ограничения

Показать сообщения:    
Ответить на тему

Текущее время: Сегодня 01:13

Часовой пояс: GMT + 4



Вы не можете начинать темы
Вы не можете отвечать на сообщения
Вы не можете редактировать свои сообщения
Вы не можете удалять свои сообщения
Вы не можете голосовать в опросах
Вы не можете прикреплять файлы к сообщениям
Вы не можете скачивать файлы

▼ Вниз