Уважаемый Гость!
Вы можете поддержать проект и зарегистрироваться у наших партнеров - онлайн-стратегия MyLands. При регистрации в игре Вы получите код, который сможете активировать после регистрации на pirat.ca и получить 1000 дублонов.

Ваш код:
b35b3ec45a7bd3f86315766471edc285be832af4
 
     

Один против всех / Сезон: 1 / Серии: 1 -16 из 16 (Владимир Виноградов (II), Михаил Вассербаум) [2017 г., Боевик, детектив, криминал, HDTVRip]

Ответить на тему
 
Автор
Сообщение

Пост 02-Фев-2017 12:54

[Q] 

cergo

Гроза морей

-Один против всехСерии: 1 -16 из 16--
Производство: Россия, "Мостелефильм Дистрибьюшн" по заказу НТВ
Жанр: Боевик, детектив, криминал
Год выпуска: 2016 г.
Продолжительность: 16 х ~ 00:48:00
Российская премьера: 23 января 2017
Режиссер:
Владимир Виноградов (II), Михаил Вассербаум-В ролях:
Михаил Пореченков, Илья Шакунов, Виктория Тарасова, Анна Попова, Олег Чернов, Марина Блэйк, Всеволод Яшкин, Максим Деричев, Сергей Черданцев, Владимир Зайцев, Анастасия Фурса, Пётр Белышков, Степан Старчиков, Григорий Меликбекян, Иван Породнов, Михаил Фатеев, Александр Левин (II), Игорь Климов, Макс Уральский, Никита Сологалов, Роман Грохольский, Александр Рубенчик, Ола Кейру, Александр Журман, Алексей Овсянников, Марина Дианова, Михаил Вассербаум-Описание:
Приезд в Приморск нового начальника районного одела УВД полковника Ганецкого становится для начальника розыска, Егора Жжёнова, неприятным сюрпризом. К этому времени Жжёнов навел на вверенной ему территории относительный порядок. Криминал знал свое место, а Жжёнов, как настоящий шериф, вершил правосудие. Кого хотел - сажал, кого хотел - миловал... Одновременно с приездом Ганецкого в Приморске начинает осложняться криминальная обстановка. Происходит нападение на воинскую часть, откуда неизвестные похищают большую партию оружия. Затем начинается война между этническими группировками, которые к этому моменту мирно делили территорию. Ни Жжёнов, ни его люди не знают, что всё это часть большой игры, в которой все они будут играть заранее отведённые роли. Кому-то суждено стать героем, кому-то погибнуть, кому-то стать предателем.-
Качество видео: HDTVRip
Контейнер: AVI
Видео кодек: XviD
Аудио кодек: AC3
Видео: 720x400 (1.80:1), 25 fps, XviD build 73 ~1553 kbps avg, 0.22 bit/pixel
Аудио: 48 kHz, AC3 Dolby Digital, 2/0 (L,R) ch, ~192 kbps
Cубтитры: отсутствуют
Общее
Полное имя : F:\Кино\Odin.protiv.vsech.2016.HDTVRip.avi
Формат : AVI
Формат/Информация : Audio Video Interleave
Размер файла : 550 Мбайт
Продолжительность : 43 м.
Общий поток : 1754 Кбит/сек
Программа кодирования : VirtualDubModRus 1.5.10.2 (build 2542/release)
Библиотека кодирования : VirtualDubMod build 2542/release
Видео
Идентификатор : 0
Формат : MPEG-4 Visual
Профиль формата : Advanced [email protected]
Параметр BVOP формата : 1
Параметр QPel формата : Нет
Параметр GMC формата : Без точки перехода
Параметр матрицы формата : Выборочная
Идентификатор кодека : XVID
Идентификатор кодека/Подсказка : XviD
Продолжительность : 43 м.
Битрейт : 1553 Кбит/сек
Ширина : 720 пикселей
Высота : 400 пикселей
Соотношение сторон : 16:9
Частота кадров : 25,000 кадров/сек
Цветовое пространство : YUV
Субдискретизация насыщенности : 4:2:0
Битовая глубина : 8 бит
Тип развёртки : Прогрессивная
Метод сжатия : С потерями
Бит/(Пиксели*Кадры) : 0.216
Размер потока : 487 Мбайт (89%)
Библиотека кодирования : XviD 73
Аудио
Идентификатор : 1
Формат : AC-3
Формат/Информация : Audio Coding 3
Расширение режима : CM (complete main)
Параметр Endianness формата : Big
Идентификатор кодека : 2000
Продолжительность : 43 м.
Вид битрейта : Постоянный
Битрейт : 192 Кбит/сек
Каналы : 2 канала
Расположение каналов : Front: L R
Частота : 48,0 КГц
Битовая глубина : 16 бит
Метод сжатия : С потерями
Размер потока : 60,2 Мбайт (11%)
Выравнивание : Разделение по промежуткам
Продолжительность промежутка : 40 мс. (1,00 видеокадр)
Время предзагрузки промежутка : 500 мс.
при каждом добавлении создётся новый торрент. Чтобы начать докачку новой серии, пользователям необходимо сделать следующее:
(1) остановить скачивание,
(2) удалить старый торрент у себя из клиента (старые серии удалять не надо),
(3) скачать новый торрент и запустить его у себя в клиенте, при этом указать клиенту путь в старую папку куда и должно происходить скачивание новых серий.
Ваш клиент при этом должен произвести хеширование (проверку) старой папки и будет докачивать только те серии которых у вас ещё нет. Старые серии при этом не удаляются, а продолжают раздаваться!
Eсли вы уже удалили старые серии, то предотвратить повторную закачку старых серий можно, отжав галочку в соответствующих местах при запуске нового торрента. (по возможности, желательно не удалять старые серии как можно дольше чтобы релизёр не столько продолжал раздавать старые серии, а смог сконцентрироваться на новых)
Скриншоты:
-
Download / Скачать

Хотите скачать бесплатно? Зарегистрируйтесь на сайте (ссылка на регистрацию). Pirat.ca - самый быстрый торрент трекер в рунете!

Как скачивать  ·   Что такое торрент  ·   Рейтинг и ограничения

cergo ®

Гроза морей

20385

Пост 03-Фев-2017 12:07 (спустя 23 часа)

[Q] 

добавлены 15 и 16 серии.
[Профиль]  [ЛС] 

ss80

Гроза морей

36

Пост 03-Фев-2017 20:39 (спустя 8 часов)

[Q] 

Спасибо!!!
[Профиль]  [ЛС] 

cergo ®

Гроза морей

20385

Пост 04-Фев-2017 09:34 (спустя 12 часов)

[Q] 

786111 Спасибо!!!
az
[Профиль]  [ЛС] 

Sharifulla

Корсар

Пост 22-Фев-2017 00:16 (спустя 17 дней)

[Q] 

Спасибо автору за труд
[Профиль]  [ЛС] 

Alexlogin

Гроза морей

106

Пост 03-Май-2017 16:45 (спустя 2 месяца 9 дней)

[Q] 

Спасибо забираю
[Профиль]  [ЛС] 

voyeurg

Шкипер

5

Пост 05-Июн-2017 18:51 (спустя 1 месяц 2 дня)

[Q] 

интересный сюжет Спасибо!!!
[Профиль]  [ЛС] 
Показать сообщения:    
Ответить на тему

Текущее время: Сегодня 18:58

Часовой пояс: GMT + 4



Вы не можете начинать темы
Вы не можете отвечать на сообщения
Вы не можете редактировать свои сообщения
Вы не можете удалять свои сообщения
Вы не можете голосовать в опросах
Вы не можете прикреплять файлы к сообщениям
Вы не можете скачивать файлы

▼ Вниз