Уважаемый Гость!
Вы можете поддержать проект и зарегистрироваться у наших партнеров - онлайн-стратегия MyLands. При регистрации в игре Вы получите код, который сможете активировать после регистрации на pirat.ca и получить 1000 дублонов.

Ваш код:
bf76b4fde44c7189cfb4d32d5b204facc1d6d492
 
     

Выжить После / Сезон: 1-3 / Серии: 1-36 из 36 (Душан Глигоров, Александр Богуславский) [2013 г., триллер, SATRip]

Ответить на тему
 
Автор
Сообщение

Пост 05-Фев-2017 20:55

[Q] 

pdb08

Легенда

-Выжить После-- Производство: Россия
Жанр: триллер
Год выпуска: 2013 - 2016 г.
Продолжительность: 36х ~00:48:00
Российская премьера: 18 ноября 2013
Режиссер: Душан Глигоров, Александр Богуславский, Андрей Комаров-В ролях: Ирина Баринова, Антон Батырев, Сергей Белов, Мария Белоненко, Григорий Данцигер, Евгения Розанова, Дмитрий Ендальцев, Сергей Годин, Иван Макаревич, Любовь Аксенова-Описание: Прошло некоторое время с тех пор, как вирус «Клейто» превратил Москву в город-призрак, населённый мутантками. Город по-прежнему изолирован от внешнего мира, и контролируется корпорацией «Вершина», сменившей руководство, но не цели. Скрывая от общественности правду, и утверждая, что в городе не осталось выживших, корпорация продолжает исследования вируса, используя город как своего рода испытательный полигон для заражённых.
Учёные корпорации выясняют, что вирус мутирует, постепенно наделяя своих носителей свойствами, необходимыми для выживания. Группа выживших молодых людей находится внутри закрытого города без связи и защиты. Объединяясь в группы или действуя поодиночке, они пытаются спасти свои жизни не только от заражённых особей, но также и от боевиков корпорации, зачищающих город от нежелательных свидетелей. У них у всех разные цели — кто-то хочет любой ценой покинуть город, а кто-то намерен остаться и начать войну против корпорации, чтобы отомстить за гибель своих близких.-
Качество видео: SATRip
Контейнер: MKV
Видео кодек: MPEG4 AVC
Аудио кодек: AC3
Видео: AVC at 1431 Кбит/сек , 720 x 400 (1.800) at 25.000 fps
Аудио: AC-3 at 192 Кбит/сек , 2 канала, 48,0 КГц
Cубтитры: отсутствуют
Офис корпорации «Вершина», повинной в распространении вируса, снимали в башнях Москва-Сити.
Художники по гриму заказывали в Корее специальные склеральные линзы, создающие имитацию зрачка насекомых — в России их не производят. На съёмках дежурил врач-офтальмолог.
Для съемок пораженной вирусом Москвы были перекрыты район Китай-города, МКАД, и несколько улиц возле Павелецкого вокзала. Самую массовую сцену с участием мураний снимали на набережной в Нескучном саду.
Кастинг длился полгода, в нём приняли участие более 500 человек. Некоторые из утверждённых актёров пробовались по 8-10 раз.
За основу декораций подземного бункера, в котором заперты герои, был взят проект настоящего бункера. Площадь декорации составила 600 кв. метров.
Часть съемок проходила в подземных бункерах в Нахабино, на Таганке и в Соляных подвалах на улице Солянка.
Походку зомби разрабатывал и ставил профессиональный хореограф.
Общее
Уникальный идентификатор : 183857184982570358194332873222047086249 (0x8A519B16071DDEA78395BD4B22E336A9)
Полное имя : D:\Фильм 00\Выжить после.[pirat.ca].SATRip.AVC\Сезон 1\s01e01.mkv
Формат : Matroska
Версия формата : Version 2
Размер файла : 558 Мбайт
Продолжительность : 47 м. 4 с.
Общий поток : 1656 Кбит/сек
Название фильма : Выжить после.s01e01.AVC.Doc66
Дата кодирования : UTC 2016-02-22 07:23:01
Программа кодирования : mkvmerge v5.8.0 ('No Sleep / Pillow') built on Sep 2 2012 15:37:04
Библиотека кодирования : libebml v1.2.3 + libmatroska v1.3.0
Видео
Идентификатор : 1
Формат : AVC
Формат/Информация : Advanced Video Codec
Профиль формата : [email protected]
Параметр CABAC формата : Да
Параметр ReFrames формата : 8 кадров
Идентификатор кодека : V_MPEG4/ISO/AVC
Продолжительность : 47 м. 4 с.
Битрейт : 1431 Кбит/сек
Ширина : 720 пикселей
Высота : 400 пикселей
Соотношение сторон : 16:9
Режим частоты кадров : Постоянный
Частота кадров : 25,000 кадров/сек
Цветовое пространство : YUV
Субдискретизация насыщенности : 4:2:0
Битовая глубина : 8 бит
Тип развёртки : Прогрессивная
Бит/(Пиксели*Кадры) : 0.199
Размер потока : 482 Мбайт (86%)
Библиотека кодирования : x264 core 130 r2273 b3065e6
Настройки программы : cabac=1 / ref=8 / deblock=1:-2:-1 / analyse=0x3:0x113 / me=umh / subme=9 / psy=1 / psy_rd=1.00:0.15 / mixed_ref=1 / me_range=24 / chroma_me=1 / trellis=2 / 8x8dct=1 / cqm=0 / deadzone=21,11 / fast_pskip=1 / chroma_qp_offset=-3 / threads=6 / lookahead_threads=1 / sliced_threads=0 / nr=0 / decimate=1 / interlaced=0 / bluray_compat=0 / constrained_intra=0 / bframes=8 / b_pyramid=2 / b_adapt=2 / b_bias=0 / direct=1 / weightb=1 / open_gop=0 / weightp=2 / keyint=250 / keyint_min=25 / scenecut=40 / intra_refresh=0 / rc=crf / mbtree=0 / crf=18.0 / qcomp=0.60 / qpmin=0 / qpmax=69 / qpstep=4 / ip_ratio=1.40 / pb_ratio=1.30 / aq=2:0.70
Default : Да
Forced : Нет
Аудио
Идентификатор : 2
Формат : AC-3
Формат/Информация : Audio Coding 3
Расширение режима : CM (complete main)
Параметр Endianness формата : Big
Идентификатор кодека : A_AC3
Продолжительность : 47 м. 4 с.
Вид битрейта : Постоянный
Битрейт : 192 Кбит/сек
Каналы : 2 канала
Расположение каналов : Front: L R
Частота : 48,0 КГц
Частота кадров : 31,250 кадров/сек (1536 spf)
Битовая глубина : 16 бит
Метод сжатия : С потерями
Размер потока : 64,7 Мбайт (12%)
Default : Да
Forced : Нет
Download / Скачать

Хотите скачать бесплатно? Зарегистрируйтесь на сайте (ссылка на регистрацию). Pirat.ca - самый быстрый торрент трекер в рунете!

Как скачивать  ·   Что такое торрент  ·   Рейтинг и ограничения

DocSoft

Гроза морей

164

Пост 06-Фев-2017 21:46 (спустя 1 день)

[Q] 

Как же Я надеюсь что это нормальный сериал ! Ну чтож погнали заценим !!! Лови бочку

_________________
Всего одна Любовь !
[Профиль]  [ЛС] 

pdb08 ®

Легенда

72

Пост 06-Фев-2017 22:15 (спустя 28 минут)

[Q] 

Приятного просмотра! .

_________________
[Профиль]  [ЛС] 
Показать сообщения:    
Ответить на тему

Текущее время: Сегодня 12:30

Часовой пояс: GMT + 4



Вы не можете начинать темы
Вы не можете отвечать на сообщения
Вы не можете редактировать свои сообщения
Вы не можете удалять свои сообщения
Вы не можете голосовать в опросах
Вы не можете прикреплять файлы к сообщениям
Вы не можете скачивать файлы

▼ Вниз