Уважаемый Гость!
Вы можете поддержать проект и зарегистрироваться у наших партнеров - онлайн-стратегия MyLands. При регистрации в игре Вы получите код, который сможете активировать после регистрации на pirat.ca и получить 1000 дублонов.

Ваш код:
bf76b4fde44c7189cfb4d32d5b204facc1d6d492
 
     

Строговы / Серии: 1-8 из 8 (Владимир Венгеров, Михаил Никитин) [1976 г., Киноэпопея, SATRip]

Ответить на тему
 
Автор
Сообщение

Пост 08-Фев-2017 20:18

[Q] 

Мархуз

-Строговы-- Производство: СССР, Ленфильм
Жанр: Киноэпопея
Год выпуска: 1976 г.
Продолжительность: 8 х01:05:52
Режиссер: Владимир Венгеров, Михаил Никитин-В ролях: Борис Борисов, Людмила Зайцева, Герман Новиков, Сергей Медведский, Людмила Аринина, Валерий Баринов, Адольф Ильин, Майя Булгакова, Виктор Павлов, Гелий Сысоев, Виктор Трегубович, Маргарита (Рита) Гладунко, Леонид Неведомский, Валерий Кравченко, Валерий Анисимов, Александр Хочинский, Людмила Коршакова, Людмила Гурченко, Лариса Буркова, Борис Чирков, Игорь Дмитриев, Алексей Кожевников, Виктор Чайников, С. Голубев, Павел Первушин, Наталья Бражникова, Аркадий Трусов, Татьяна Говорова, Евгений Котов, Юрий Башков, Анатолий Подшивалов, Александр Москвин, Александр Ильин, Ю. Лебедев, К. Сибирский, Владимир Эренберг, Олег Белов, Дмитрий Бессонов, Иосиф Конопацкий, Георгий Штиль, Феликс Ведерников, Даниил Долинов, Андрей Брусницын, Алексей Плавинский, Александр Жданов, Александр Афанасьев, Татьяна Кулиш, Виктория Смоленская, Валентина Пугачёва, Борис Лёскин, Ольга Малоземова, Булат Окуджава, Анатолий Семёнов, Виктор Боков, С. Киселев, Н. Сизов, Анна Кукушкина, Михаил Митин-Описание: Фильм рассказывает о быте дореволюционной сибирской деревни, о становлении характера главного героя - Матвея Строгова.В фильме через судьбу крестьянской семьи Строговых ярко и образно показана картина жизни Сибирского края в период крупных исторических событий - Русско-японской войны, революции 1905 года, Октябрьской революции 1917 года и Гражданской войны. Главный герой проходит "огонь, воду и медные трубы", от мирного крестьянина-пасечника до командира красного партизанского отряда, доказав себе и другим, что человек всегда должен оставаться человеком и с честью выходить из любых жизненных коллизий...-Качество видео: SATRip
Контейнер: AVI
Видео кодек: XviD
Аудио кодек: MP3
Видео: 704x528; 1089 kbps; 25 fps; 0.117 bit/pixel
Аудио: 192 kbps; 2 ch; 48 kHz
Cубтитры: отсутствуют
1977 год - Диплом 7-го Всесоюзного фестиваля телевизионных фильмов
1 серия
General
Complete name : E:\Torrent 2\Strogovi_[Pirat.ca].torrent\серия (1).avi
Format : AVI
Format/Info : Audio Video Interleave
File size : 596 MiB
Duration : 1h 4mn
Overall bit rate : 1 291 Kbps
Movie name : Культура_Строговы_1
Writing application : VirtualDubMod 1.5.10.3 | www.virtualdub-fr.org || (build 2550/release)
Writing library : VirtualDub build 35491/release
Comment : Rip by iriston
Video
ID : 0
Format : MPEG-4 Visual
Format profile : Advanced [email protected]
Format settings, BVOP : 2
Format settings, QPel : No
Format settings, GMC : No warppoints
Format settings, Matrix : Default (H.263)
Muxing mode : Packed bitstream
Codec ID : XVID
Codec ID/Hint : XviD
Duration : 1h 4mn
Bit rate : 1 089 Kbps
Width : 704 pixels
Height : 528 pixels
Display aspect ratio : 4:3
Frame rate : 25.000 fps
Color space : YUV
Chroma subsampling : 4:2:0
Bit depth : 8 bits
Scan type : Progressive
Compression mode : Lossy
Bits/(Pixel*Frame) : 0.117
Stream size : 503 MiB (84%)
Writing library : XviD 73
Audio
ID : 1
Format : MPEG Audio
Format version : Version 1
Format profile : Layer 3
Codec ID : 55
Codec ID/Hint : MP3
Duration : 1h 4mn
Bit rate mode : Constant
Bit rate : 192 Kbps
Channel(s) : 2 channels
Sampling rate : 48.0 KHz
Compression mode : Lossy
Stream size : 88.6 MiB (15%)
Alignment : Aligned on interleaves
Interleave, duration : 40 ms (1.00 video frame)
Interleave, preload duratio : 504 ms
Writing library : LAMEUU7c•W[-‘§Ћ!Н
2 серия
General
Complete name : E:\Torrent 2\Strogovi_[Pirat.ca].torrent\серия (2).avi
Format : AVI
Format/Info : Audio Video Interleave
File size : 653 MiB
Duration : 1h 1mn
Overall bit rate : 1 481 Kbps
Movie name : Культура_Строговы_2
Writing application : VirtualDubMod 1.5.10.3 | www.virtualdub-fr.org || (build 2550/release)
Writing library : VirtualDub build 35491/release
Comment : Rip by iriston
Video
ID : 0
Format : MPEG-4 Visual
Format profile : Advanced [email protected]
Format settings, BVOP : 2
Format settings, QPel : No
Format settings, GMC : No warppoints
Format settings, Matrix : Default (H.263)
Muxing mode : Packed bitstream
Codec ID : XVID
Codec ID/Hint : XviD
Duration : 1h 1mn
Bit rate : 1 280 Kbps
Width : 704 pixels
Height : 528 pixels
Display aspect ratio : 4:3
Frame rate : 25.000 fps
Color space : YUV
Chroma subsampling : 4:2:0
Bit depth : 8 bits
Scan type : Progressive
Compression mode : Lossy
Bits/(Pixel*Frame) : 0.138
Stream size : 564 MiB (86%)
Writing library : XviD 73
Audio
ID : 1
Format : MPEG Audio
Format version : Version 1
Format profile : Layer 3
Codec ID : 55
Codec ID/Hint : MP3
Duration : 1h 1mn
Bit rate mode : Constant
Bit rate : 192 Kbps
Channel(s) : 2 channels
Sampling rate : 48.0 KHz
Compression mode : Lossy
Stream size : 84.6 MiB (13%)
Alignment : Aligned on interleaves
Interleave, duration : 40 ms (1.00 video frame)
Interleave, preload duratio : 504 ms
Writing library : LAME3.98.4`˜›ЙЧШrК
3 серия
General
Complete name : E:\Torrent 2\Strogovi_[Pirat.ca].torrent\серия (3).avi
Format : AVI
Format/Info : Audio Video Interleave
File size : 637 MiB
Duration : 1h 5mn
Overall bit rate : 1 362 Kbps
Movie name : Культура_Строговы_3
Writing application : VirtualDubMod 1.5.10.3 | www.virtualdub-fr.org || (build 2550/release)
Writing library : VirtualDub build 35491/release
Comment : Rip by iriston
Video
ID : 0
Format : MPEG-4 Visual
Format profile : Advanced [email protected]
Format settings, BVOP : 2
Format settings, QPel : No
Format settings, GMC : No warppoints
Format settings, Matrix : Default (H.263)
Muxing mode : Packed bitstream
Codec ID : XVID
Codec ID/Hint : XviD
Duration : 1h 5mn
Bit rate : 1 160 Kbps
Width : 704 pixels
Height : 528 pixels
Display aspect ratio : 4:3
Frame rate : 25.000 fps
Color space : YUV
Chroma subsampling : 4:2:0
Bit depth : 8 bits
Scan type : Progressive
Compression mode : Lossy
Bits/(Pixel*Frame) : 0.125
Stream size : 543 MiB (85%)
Writing library : XviD 73
Audio
ID : 1
Format : MPEG Audio
Format version : Version 1
Format profile : Layer 3
Codec ID : 55
Codec ID/Hint : MP3
Duration : 1h 5mn
Bit rate mode : Constant
Bit rate : 192 Kbps
Channel(s) : 2 channels
Sampling rate : 48.0 KHz
Compression mode : Lossy
Stream size : 89.8 MiB (14%)
Alignment : Aligned on interleaves
Interleave, duration : 40 ms (1.00 video frame)
Interleave, preload duratio : 504 ms
Writing library : LAME3.98.4UUUUU1$QЁ
4 серия
General
Complete name : E:\Torrent 2\Strogovi_[Pirat.ca].torrent\серия (4).avi
Format : AVI
Format/Info : Audio Video Interleave
File size : 513 MiB
Duration : 1h 3mn
Overall bit rate : 1 138 Kbps
Movie name : Культура_Строговы_4
Writing application : VirtualDubMod 1.5.10.3 | www.virtualdub-fr.org || (build 2550/release)
Writing library : VirtualDub build 35491/release
Comment : Rip by iriston
Video
ID : 0
Format : MPEG-4 Visual
Format profile : Advanced [email protected]
Format settings, BVOP : 2
Format settings, QPel : No
Format settings, GMC : No warppoints
Format settings, Matrix : Default (H.263)
Muxing mode : Packed bitstream
Codec ID : XVID
Codec ID/Hint : XviD
Duration : 1h 3mn
Bit rate : 937 Kbps
Width : 704 pixels
Height : 528 pixels
Display aspect ratio : 4:3
Frame rate : 25.000 fps
Color space : YUV
Chroma subsampling : 4:2:0
Bit depth : 8 bits
Scan type : Progressive
Compression mode : Lossy
Bits/(Pixel*Frame) : 0.101
Stream size : 422 MiB (82%)
Writing library : XviD 73
Audio
ID : 1
Format : MPEG Audio
Format version : Version 1
Format profile : Layer 3
Codec ID : 55
Codec ID/Hint : MP3
Duration : 1h 3mn
Bit rate mode : Constant
Bit rate : 192 Kbps
Channel(s) : 2 channels
Sampling rate : 48.0 KHz
Compression mode : Lossy
Stream size : 86.6 MiB (17%)
Alignment : Aligned on interleaves
Interleave, duration : 40 ms (1.00 video frame)
Interleave, preload duratio : 504 ms
Writing library : LAME3.98.4ЄЄЄЫќІ№m­
5 серия
General
Complete name : E:\Torrent 2\Strogovi_[Pirat.ca].torrent\серия (5).avi
Format : AVI
Format/Info : Audio Video Interleave
File size : 657 MiB
Duration : 1h 4mn
Overall bit rate : 1 420 Kbps
Movie name : Культура_Строговы_5
Writing application : VirtualDubMod 1.5.10.3 | www.virtualdub-fr.org || (build 2550/release)
Writing library : VirtualDub build 35491/release
Comment : Rip by iriston
Video
ID : 0
Format : MPEG-4 Visual
Format profile : Advanced [email protected]
Format settings, BVOP : 2
Format settings, QPel : No
Format settings, GMC : No warppoints
Format settings, Matrix : Default (H.263)
Muxing mode : Packed bitstream
Codec ID : XVID
Codec ID/Hint : XviD
Duration : 1h 4mn
Bit rate : 1 219 Kbps
Width : 704 pixels
Height : 528 pixels
Display aspect ratio : 4:3
Frame rate : 25.000 fps
Color space : YUV
Chroma subsampling : 4:2:0
Bit depth : 8 bits
Scan type : Progressive
Compression mode : Lossy
Bits/(Pixel*Frame) : 0.131
Stream size : 564 MiB (86%)
Writing library : XviD 73
Audio
ID : 1
Format : MPEG Audio
Format version : Version 1
Format profile : Layer 3
Codec ID : 55
Codec ID/Hint : MP3
Duration : 1h 4mn
Bit rate mode : Constant
Bit rate : 192 Kbps
Channel(s) : 2 channels
Sampling rate : 48.0 KHz
Compression mode : Lossy
Stream size : 88.8 MiB (14%)
Alignment : Aligned on interleaves
Interleave, duration : 40 ms (1.00 video frame)
Interleave, preload duratio : 504 ms
6 серия
General
Complete name : E:\Torrent 2\Strogovi_[Pirat.ca].torrent\серия (6).avi
Format : AVI
Format/Info : Audio Video Interleave
File size : 673 MiB
Duration : 1h 12mn
Overall bit rate : 1 303 Kbps
Movie name : Культура_Строговы_6
Writing application : VirtualDubMod 1.5.10.3 | www.virtualdub-fr.org || (build 2550/release)
Writing library : VirtualDub build 35491/release
Comment : Rip by iriston
Video
ID : 0
Format : MPEG-4 Visual
Format profile : Advanced [email protected]
Format settings, BVOP : 2
Format settings, QPel : No
Format settings, GMC : No warppoints
Format settings, Matrix : Default (H.263)
Muxing mode : Packed bitstream
Codec ID : XVID
Codec ID/Hint : XviD
Duration : 1h 12mn
Bit rate : 1 101 Kbps
Width : 704 pixels
Height : 528 pixels
Display aspect ratio : 4:3
Frame rate : 25.000 fps
Color space : YUV
Chroma subsampling : 4:2:0
Bit depth : 8 bits
Scan type : Progressive
Compression mode : Lossy
Bits/(Pixel*Frame) : 0.119
Stream size : 569 MiB (85%)
Writing library : XviD 73
Audio
ID : 1
Format : MPEG Audio
Format version : Version 1
Format profile : Layer 3
Codec ID : 55
Codec ID/Hint : MP3
Duration : 1h 12mn
Bit rate mode : Constant
Bit rate : 192 Kbps
Channel(s) : 2 channels
Sampling rate : 48.0 KHz
Compression mode : Lossy
Stream size : 99.2 MiB (15%)
Alignment : Aligned on interleaves
Interleave, duration : 40 ms (1.00 video frame)
Interleave, preload duratio : 504 ms
Writing library : LAME™4±ЁТEY‘ЊL‡лЕ
7 серия
General
Complete name : E:\Torrent 2\Strogovi_[Pirat.ca].torrent\серия (7).avi
Format : AVI
Format/Info : Audio Video Interleave
File size : 619 MiB
Duration : 1h 5mn
Overall bit rate : 1 313 Kbps
Movie name : Культура_Строговы_7
Writing application : VirtualDubMod 1.5.10.3 | www.virtualdub-fr.org || (build 2550/release)
Writing library : VirtualDub build 35491/release
Comment : Rip by iriston
Video
ID : 0
Format : MPEG-4 Visual
Format profile : Advanced [email protected]
Format settings, BVOP : 2
Format settings, QPel : No
Format settings, GMC : No warppoints
Format settings, Matrix : Default (H.263)
Muxing mode : Packed bitstream
Codec ID : XVID
Codec ID/Hint : XviD
Duration : 1h 5mn
Bit rate : 1 111 Kbps
Width : 704 pixels
Height : 528 pixels
Display aspect ratio : 4:3
Frame rate : 25.000 fps
Color space : YUV
Chroma subsampling : 4:2:0
Bit depth : 8 bits
Scan type : Progressive
Compression mode : Lossy
Bits/(Pixel*Frame) : 0.120
Stream size : 524 MiB (85%)
Writing library : XviD 73
Audio
ID : 1
Format : MPEG Audio
Format version : Version 1
Format profile : Layer 3
Codec ID : 55
Codec ID/Hint : MP3
Duration : 1h 5mn
Bit rate mode : Constant
Bit rate : 192 Kbps
Channel(s) : 2 channels
Sampling rate : 48.0 KHz
Compression mode : Lossy
Stream size : 90.5 MiB (15%)
Alignment : Aligned on interleaves
Interleave, duration : 40 ms (1.00 video frame)
Interleave, preload duratio : 504 ms
Writing library : LAME3.98µ¬ЦJмi¬ $‘
8 серия
General
Complete name : E:\Torrent 2\Strogovi_[Pirat.ca].torrent\серия (8).avi
Format : AVI
Format/Info : Audio Video Interleave
File size : 672 MiB
Duration : 1h 10mn
Overall bit rate : 1 339 Kbps
Movie name : Культура_Строговы_8
Writing application : VirtualDubMod 1.5.10.3 | www.virtualdub-fr.org || (build 2550/release)
Writing library : VirtualDub build 35491/release
Comment : Rip by iriston
Video
ID : 0
Format : MPEG-4 Visual
Format profile : Advanced [email protected]
Format settings, BVOP : 2
Format settings, QPel : No
Format settings, GMC : No warppoints
Format settings, Matrix : Default (H.263)
Muxing mode : Packed bitstream
Codec ID : XVID
Codec ID/Hint : XviD
Duration : 1h 10mn
Bit rate : 1 137 Kbps
Width : 704 pixels
Height : 528 pixels
Display aspect ratio : 4:3
Frame rate : 25.000 fps
Color space : YUV
Chroma subsampling : 4:2:0
Bit depth : 8 bits
Scan type : Progressive
Compression mode : Lossy
Bits/(Pixel*Frame) : 0.122
Stream size : 571 MiB (85%)
Writing library : XviD 73
Audio
ID : 1
Format : MPEG Audio
Format version : Version 1
Format profile : Layer 3
Codec ID : 55
Codec ID/Hint : MP3
Duration : 1h 10mn
Bit rate mode : Constant
Bit rate : 192 Kbps
Channel(s) : 2 channels
Sampling rate : 48.0 KHz
Compression mode : Lossy
Stream size : 96.5 MiB (14%)
Alignment : Aligned on interleaves
Interleave, duration : 40 ms (1.00 video frame)
Interleave, preload duratio : 504 ms
Writing library : LAMEЄЄЄП6їGlЌє˜рt «

Раздача с 14.00 до 2.00 (время московское)
Download / Скачать

Хотите скачать бесплатно? Зарегистрируйтесь на сайте (ссылка на регистрацию). Pirat.ca - самый быстрый торрент трекер в рунете!

Как скачивать  ·   Что такое торрент  ·   Рейтинг и ограничения

vovan200976

Флибустьер

Пост 08-Фев-2017 20:34 (спустя 15 минут)

[Q] 

Замечательный фильм!!! Лови бочку
[Профиль]  [ЛС] 
Показать сообщения:    
Ответить на тему

Текущее время: Сегодня 12:17

Часовой пояс: GMT + 4



Вы не можете начинать темы
Вы не можете отвечать на сообщения
Вы не можете редактировать свои сообщения
Вы не можете удалять свои сообщения
Вы не можете голосовать в опросах
Вы не можете прикреплять файлы к сообщениям
Вы не можете скачивать файлы

▼ Вниз