Уважаемый Гость!
Вы можете поддержать проект и зарегистрироваться у наших партнеров - онлайн-стратегия MyLands. При регистрации в игре Вы получите код, который сможете активировать после регистрации на pirat.ca и получить 1000 дублонов.

Ваш код:
1b8effbb2d91248629d5897a85d0d1c4a4c433f0
 
     

Пять минут тишины / Серии: 1-10 из 10 (Алексей Праздников) [2017,приключения, мелодрама, SATRip-AVC]

Ответить на тему
 
Автор
Сообщение

Пост 20-Фев-2017 22:30

[Q] 

aleksan555

Пять минут тишины --
Год выпуска: 2017
Производство: Россия,Студия «Грин Фильм»
Жанр: приключения, мелодрама
Продолжительность: 00:46:00
Субтитры: нет
--
Режиссёр: Алексей Праздников
--
В ролях: Игорь Лифанов, Анна Пескова, Роман Курцын,Анастасия Стежко, Константин Воробьёв, Артур Ваха, Олег Андреев,Виталий Такс, Неля Попова, Степан Бекетов

Описание: Бойцы поисково-спасательного отряда 42-21 известны среди коллег не только тем, что они профессионалы высокого класса, а еще и тем, что каждый их выход это своего рода уникальная операция. О них ходят легенды. Их спасательные операции превращаются в байки, которые любят рассказывать у костра новичкам. Дело в том, что в каждой операции по спасению наши герои умудряются найти нестандартный выход из ситуации, порой граничащий с безумием или с анекдотом. Рутину подвигов отряда 42-21 нарушает прибытие молодого специалиста Александра Грека.
--

--
Качество: SATRip-AVC
Формат: MKV
Видео кодек: H.264
Аудио кодек: AC3
Видео: MPEG4 Video (H264), 720x400, 25fps,1700 Kbps,bit/pixel 0.236
Аудио: AC3 48000Hz, stereo, 192kbps,2 ch

--
Общее
Уникальный идентификатор : 206666507391109456116810154062334147624 (0x9B7A85819734BDC78A43B4B4D6143C28)
Полное имя : I:\Пять минут тишины\01 серия_Пять минут тишины_rip by_Aleksan55.mkv
Формат : Matroska
Версия формата : Version 2
Размер файла : 632 Мбайт
Продолжительность : 46 м. 39 с.
Общий поток : 1894 Кбит/сек
Дата кодирования : UTC 2017-02-20 13:27:05
Программа кодирования : mkvmerge v7.8.0 ('River Man') 32bit built on Apr 3 2015 12:11:22
Библиотека кодирования : libebml v1.3.1 + libmatroska v1.4.2
Видео
Идентификатор : 1
Формат : AVC
Формат/Информация : Advanced Video Codec
Профиль формата : [email protected]
Параметр CABAC формата : Да
Параметр ReFrames формата : 14 кадров
Идентификатор кодека : V_MPEG4/ISO/AVC
Продолжительность : 46 м. 39 с.
Битрейт : 1700 Кбит/сек
Ширина : 720 пикселей
Высота : 400 пикселей
Соотношение сторон : 16:9
Режим частоты кадров : Постоянный
Частота кадров : 25,000 кадров/сек
Цветовое пространство : YUV
Субдискретизация насыщенности : 4:2:0
Битовая глубина : 8 бит
Тип развёртки : Прогрессивная
Бит/(Пиксели*Кадры) : 0.236
Размер потока : 555 Мбайт (88%)
Библиотека кодирования : x264 core 148 r2638 7599210
Настройки программы : cabac=1 / ref=14 / deblock=1:-1:-1 / analyse=0x3:0x133 / me=umh / subme=9 / psy=1 / psy_rd=1.00:0.15 / mixed_ref=0 / me_range=32 / chroma_me=1 / trellis=2 / 8x8dct=1 / cqm=0 / deadzone=21,11 / fast_pskip=0 / chroma_qp_offset=-3 / threads=3 / lookahead_threads=3 / sliced_threads=0 / nr=0 / decimate=0 / interlaced=0 / bluray_compat=0 / constrained_intra=0 / bframes=14 / b_pyramid=2 / b_adapt=1 / b_bias=0 / direct=3 / weightb=1 / open_gop=0 / weightp=2 / keyint=250 / keyint_min=25 / scenecut=40 / intra_refresh=0 / rc_lookahead=40 / rc=2pass / mbtree=1 / bitrate=1700 / ratetol=1.0 / qcomp=0.80 / qpmin=0 / qpmax=40 / qpstep=4 / cplxblur=20.0 / qblur=0.5 / ip_ratio=1.10 / aq=1:1.20
Default : Да
Forced : Нет
Цветовой диапазон : Limited
Основные цвета : BT.601 PAL
Характеристики трансфера : BT.470 System B, BT.470 System G
Коэффициенты матрицы : BT.601
Аудио
Идентификатор : 2
Формат : AC-3
Формат/Информация : Audio Coding 3
Расширение режима : CM (complete main)
Параметр Endianness формата : Big
Идентификатор кодека : A_AC3
Продолжительность : 46 м. 39 с.
Вид битрейта : Постоянный
Битрейт : 192 Кбит/сек
Каналы : 2 канала
Расположение каналов : Front: L R
Частота : 48,0 КГц
Частота кадров : 31,250 кадров/сек (1536 spf)
Битовая глубина : 16 бит
Метод сжатия : С потерями
Размер потока : 64,1 Мбайт (10%)
Default : Да
Forced : Нет
Внимание! Раздача ведётся путём добавления новых серий; при каждом добавлении создаётся новый торрент.
Чтобы начать докачку новой серии, пользователям необходимо сделать следующее:
1. Остановить скачивание;
2. Удалить старый торрент у себя из клиента (старые серии удалять не надо);
3. Скачать новый торрент и запустить его у себя в клиенте вместо старого, при этом указать клиенту путь в старую папку куда и должно происходить скачивание новых серий. Ваш клиент при этом должен произвести хеширование (проверку) старой папки и будет докачивать только те серии, которых у вас ещё нет. Старые серии при этом не удаляются, а продолжают раздаваться! Eсли вы уже удалили старые серии, то предотвратить повторную закачку старых серий можно, отжав галочку в соответствующих местах при запуске нового торрента.
-- Добавлена 7-10 серия.
Download / Скачать

Хотите скачать бесплатно? Зарегистрируйтесь на сайте (ссылка на регистрацию). Pirat.ca - самый быстрый торрент трекер в рунете!

Как скачивать  ·   Что такое торрент  ·   Рейтинг и ограничения



Последний раз редактировалось: aleksan555 (2017-02-24 00:52), всего редактировалось 3 раз(а)

Shpok

Шкипер

Пост 21-Фев-2017 00:05 (спустя 1 час 34 минуты)

[Q] 

чето мне даже качать сцыкотно....
[Профиль]  [ЛС] 

olmed

Гроза морей

Пост 21-Фев-2017 09:54 (спустя 9 часов)

[Q] 

глянем...
[Профиль]  [ЛС] 

pvm

Флибустьер

Пост 21-Фев-2017 18:11 (спустя 8 часов)

[Q] 

Единственный плюс, что нет рекламы.
[Профиль]  [ЛС] 

MrP

Штурман

Пост 22-Фев-2017 00:32 (спустя 6 часов)

[Q] 

Как фильм народ? Спасибо!!!
[Профиль]  [ЛС] 

aleks77l

Корсар

Пост 22-Фев-2017 21:24 (спустя 20 часов)

[Q] 

Спасибо люблю такие сериалы! fh
[Профиль]  [ЛС] 

ss80

Гроза морей

36

Пост 22-Фев-2017 23:36 (спустя 2 часа 12 минут)

[Q] 

Спасибо!!!
[Профиль]  [ЛС] 

Daar

Пост 23-Фев-2017 10:41 (спустя 11 часов)

[Q] 

И что как отзывы?
[Профиль]  [ЛС] 

zmaksimz

Корсар

Пост 25-Фев-2017 13:33 (спустя 2 дня 2 часа)

[Q] 

Две серии посмотрел и удалил.
Ну шляпа полная...
[Профиль]  [ЛС] 

raul kurochka

Флибустьер

Пост 26-Фев-2017 08:48 (спустя 19 часов)

[Q] 

Ау!!! 99.8% уже почти сутки...
Раздавать будем или как?

_________________
...ЧО ТАКОЙ СЕРЬЕЗНЫЙ???
[Профиль]  [ЛС] 
Показать сообщения:    
Ответить на тему

Текущее время: Сегодня 03:04

Часовой пояс: GMT + 4



Вы не можете начинать темы
Вы не можете отвечать на сообщения
Вы не можете редактировать свои сообщения
Вы не можете удалять свои сообщения
Вы не можете голосовать в опросах
Вы не можете прикреплять файлы к сообщениям
Вы не можете скачивать файлы

▼ Вниз