Уважаемый Гость!
Вы можете поддержать проект и зарегистрироваться у наших партнеров - онлайн-стратегия MyLands. При регистрации в игре Вы получите код, который сможете активировать после регистрации на pirat.ca и получить 1000 дублонов.

Ваш код:
d49a3625bbdee1b82b14274f97c375f8b2b2ee4c
 
     

Недотурканые (Депутатики) / Недотуркані / Сезон: 1 / Серии: 1-24 из 24 (Кирилл Бин) [2016 г., комедия, HD DVDRip, 720p]

Ответить на тему
 
Автор
Сообщение

Пост 18-Июл-2017 00:07

[Q] 

a1b1c1

Гроза морей

-Недотурканые (Депутатики) / Недотуркані-- Производство: Украина , Квартал-95
Жанр: комедия
Год выпуска: 2016 г.
Продолжительность:24 ~ 00:26:00
Российская премьера: 13 ноября 2016
Режиссёр: Кирилл Бин-В ролях: Дмитрий Суржиков, Екатерина Тышкевич, Вячеслав Гиндин, Евгений Капорин, Александр Ярема, Андрей Дебрин, Максим Максимьюк, Константин Корецкий, Андрей Романий, Олег Примогенов, Ирина Мельник-Описание: Депутатики очередной проект студии Квартал 95 на политическую тему. За последнее время украинские сериалы с подобным сюжетом пользуются большим успехом у телезрителей. Уметь правильно, корректно высмеять многие ошибки политических деятелей дело не простое. Тем не менее никто не сомневается, что сериал Депутатики / Недотурканые, который выйдет на телеэкраны этой осенью будет иметь успех. В сериале много персонажей. Центральной фигурой является депутат Парламента Дмитрий Леонидович Гришко, с виду угрюмый, и где-то не всегда честен по отношению к закону, но наш персонаж на много совестливее, чем некоторые другие "политики" сериала.
В Парламент затесались отец с сыном Жуйводу ( забавная фамилия, не правда ли?), для которых политика и есть место где можно осуществить свои амбиции, наглядно продемонстрировать власть, подкопить деньжат, что греха таить и быть на высоте. Сын Жуйводу окончил Оксфордский университет, нет не по призванию, а так модно, но теперь претворяет свои радужные мечты в Парламенте страны. Блогер Стримин пытается что-то написать, представитель оппозиции Хренов старается бороться против "бандитов-политиков", мэр Одессы по совместительству шашлычник, а мэр Киева пошел дальше всех - он каратист, без шуток, в прямом смысле слова.
- Качество видео: HD DVDRip
Контейнер: MP4
Стандарт разрешения: 720p
Видео кодек: Другой MPEG4
Аудио кодек: MP3
Видео: 1280x720p (16:9), 25,000 fps, MPEG4 AVC (x264), [email protected] ~1468 Kbps avg, 0.064 bit/pixel
Аудио: 48 kHz, MP3, 6 ch ~ 256 Kbps
Cубтитры: отсутствуют
Complete name : E:\Torrent\Недотурканые (Депутатики) Недотуркані (1-24 серии из 24)\Депутатики (Недотуркані) - 1 серия .mp4
Format : MPEG-4
Format profile : Base Media / Version 2
Codec ID : mp42 (isom/mp42)
File size : 246 MiB
Duration : 26 min 31 s
Overall bit rate mode : Variable
Overall bit rate : 1 296 kb/s
Encoded date : UTC 2016-11-15 10:15:46
Tagged date : UTC 2016-11-15 10:15:46
gsst : 0
gstd : 1592029
Video
ID : 1
Format : AVC
Format/Info : Advanced Video Codec
Format profile : [email protected]
Format settings, CABAC : Yes
Format settings, ReFrames : 3 frames
Codec ID : avc1
Codec ID/Info : Advanced Video Coding
Duration : 26 min 31 s
Bit rate : 1 167 kb/s
Width : 1 280 pixels
Height : 720 pixels
Display aspect ratio : 16:9
Frame rate mode : Constant
Frame rate : 25.000 FPS
Color space : YUV
Chroma subsampling : 4:2:0
Bit depth : 8 bits
Scan type : Progressive
Bits/(Pixel*Frame) : 0.051
Stream size : 222 MiB (90%)
Title : ISO Media file produced by Google Inc.
Encoded date : UTC 2016-11-15 10:15:46
Tagged date : UTC 2016-11-15 10:15:46
Color range : Limited
Color primaries : BT.709
Transfer characteristics : BT.709
Matrix coefficients : BT.709
Audio
ID : 2
Format : AAC
Format/Info : Advanced Audio Codec
Format profile : LC
Codec ID : 40
Duration : 26 min 31 s
Bit rate mode : Variable
Bit rate : 126 kb/s
Channel(s) : 2 channels
Channel positions : Front: L R
Sampling rate : 44.1 kHz
Frame rate : 43.066 FPS (1024 spf)
Compression mode : Lossy
Stream size : 23.8 MiB (10%)
Title : ISO Media file produced by Google Inc.
Encoded date : UTC 2016-11-15 10:15:46
Tagged date : UTC 2016-11-15 10:15:4
Download / Скачать

Хотите скачать бесплатно? Зарегистрируйтесь на сайте (ссылка на регистрацию). Pirat.ca - самый быстрый торрент трекер в рунете!

Как скачивать  ·   Что такое торрент  ·   Рейтинг и ограничения

Алёха

Флибустьер

Пост 18-Июл-2017 12:35 (спустя 12 часов)

[Q] 

любо творение господина/говнодина/говнодела Зеленского в России должно как минимум игнорироваться а не популяризироваться (мое сугубо личное убеждение)! поэтому Отказать
[Профиль]  [ЛС] 

DimaXXX

Лоцман

Пост 18-Июл-2017 23:25 (спустя 10 часов)

[Q] 

802265любо творение господина/говнодина/говнодела Зеленского в России должно как минимум игнорироваться а не популяризироваться (мое сугубо личное убеждение)! поэтому Отказать
Тогда смотри Киселева )))
[Профиль]  [ЛС] 

AugustBeniowski

Штурман

Пост 19-Июл-2017 00:08 (спустя 43 минуты)

[Q] 

802293
802265любо творение господина/говнодина/говнодела Зеленского в России должно как минимум игнорироваться а не популяризироваться (мое сугубо личное убеждение)! поэтому Спасибо!!!
Тогда смотри Киселева )))
+
Вчера опять, от имени народа,
Был обвинён товарищ Пастернак.
Его стихов мы не читали с роду,
Но и без них мы знаем, что он - враг.
Во-первых, любой, уважающий себя, пират не может быть ни империалистом, ни нацистом.
Так что, Алёха, возьмите свою бутылку (с аватарки) и идите бухать под забор с пиратского трекера.
Во-вторых, если бы зомби умели смотреть что-то кроме Киселя, то они бы знали, что Зеленский - один из главных критиков киевской власти (причём любой киевской власти за последние 15 лет).
Так что, Алёха, не гони волну.
Автору респект!!!
[Профиль]  [ЛС] 

balex26

Корсар

Пост 26-Июл-2017 00:57 (спустя 7 дней)

[Q] 

Пиратка не для выяснения отношений "личностей", не нравится проходи мимо и не гадь там где живешь.
Пиратка рулит!
[Профиль]  [ЛС] 
Показать сообщения:    
Ответить на тему

Текущее время: Сегодня 19:43

Часовой пояс: GMT + 4



Вы не можете начинать темы
Вы не можете отвечать на сообщения
Вы не можете редактировать свои сообщения
Вы не можете удалять свои сообщения
Вы не можете голосовать в опросах
Вы не можете прикреплять файлы к сообщениям
Вы не можете скачивать файлы

▼ Вниз