Уважаемый Гость!
Вы можете поддержать проект и зарегистрироваться у наших партнеров - онлайн-стратегия MyLands. При регистрации в игре Вы получите код, который сможете активировать после регистрации на pirat.ca и получить 1000 дублонов.

Ваш код:
d49a3625bbdee1b82b14274f97c375f8b2b2ee4c
 
     

Слуга народа / Сезон: 1 / Серии: 1-24 + послесловие (Алексей Кирющенко) [2015 г., комедия, SATRip]

Ответить на тему
 
Автор
Сообщение

Пост 25-Авг-2017 17:14

[Q] 

a1b1c1

Гроза морей

-Слуга народа-- Производство: Украина / "Квартал 95"
Жанр: комедия
Год выпуска: 2015 г.
Продолжительность: 25 ~ 00:25:00
Мировая премьера: 16.11.2015
Режиссёр: Алексей Кирющенко-В ролях: Владимир Зеленский, Станислав Боклан, Юрий Крапов, Елена Кравец, Александр Пикалов, Степан Казанин, Наталья Сумская, Виктор Сарайкин, Екатерина Кистень, Анна Кошмал и др.-Описание: Что будет, если президентом станет обычный человек из народа? Новый, честный, принципиальный и, самое главное, – умный человек. Именно эти мысли однажды сподвигли народ избрать президентом простого учителя истории Василия Голобородько... Неожиданно для всех страна получила гаранта, который живет в обычной квартире. Который спокойно идет по улице без армии охранников и запросто ездит на маршрутке, который получает скромную зарплату и иногда занимает у друга "до зарплаты". В общем, который живет – как все. Ведь он точно знает - когда "царь" начнет жить как простой учитель, вскоре простой учитель заживет как царь! И пускай у него нет серебряных пуль и осинового кола, каждое утро Василий Петрович выходит на борьбу с "нечистой силой" и без устали "воюет" с армадой коррумпированных и насквозь прогнивших чинуш, разгребает "авгиевы конюшни" государства. Правда, он не учел одного. Система, где все привыкли безбожно воровать, откатывать и дерибанить – будет против такой заботы о народе.-
Качество видео: SATRip
Контейнер: AVI
Стандарт разрешения: 720p
Видео кодек: XviD
Аудио кодек: MP3
Видео: XviD, 720x400 (16:9), ~1550 Kbps
Аудио: MP3, 48.0 KHz, 2 ch, 192 Kbps, CBR
Cубтитры: отсутствуют
Общее
Полное имя : Слуга народа (2015)\Слуга народа (01 серия) SATRip.avi
Формат : AVI
Формат/Информация : Audio Video Interleave
Размер файла : 300 Мбайт
Продолжительность : 22 м.
Общий поток : 1904 Кбит/сек
Программа кодирования : VirtualDubMod 1.5.10.3 | www.virtualdub-fr.org || (build 2550/release)
Библиотека кодирования : VirtualDubMod build 2550/release
Видео
Идентификатор : 0
Формат : MPEG-4 Visual
Профиль формата : Advanced [email protected]
Параметр BVOP формата : 1
Параметр QPel формата : Нет
Параметр GMC формата : Без точки перехода
Параметр матрицы формата : Default (MPEG)
Идентификатор кодека : XVID
Идентификатор кодека/Подсказка : XviD
Продолжительность : 22 м.
Битрейт : 1702 Кбит/сек
Ширина : 720 пикселей
Высота : 400 пикселей
Соотношение сторон : 16:9
Частота кадров : 25,000 кадров/сек
Цветовое пространство : YUV
Субдискретизация насыщенности : 4:2:0
Битовая глубина : 8 бит
Тип развёртки : Прогрессивная
Метод сжатия : С потерями
Бит/(Пиксели*Кадры) : 0.236
Размер потока : 269 Мбайт (89%)
Библиотека кодирования : XviD 1.2.1 (UTC 2008-12-04)
Аудио
Идентификатор : 1
Формат : MPEG Audio
Версия формата : Version 1
Профиль формата : Layer 3
Режим : Joint stereo
Расширение режима : MS Stereo
Идентификатор кодека : 55
Идентификатор кодека/Подсказка : MP3
Продолжительность : 22 м.
Вид битрейта : Постоянный
Битрейт : 192 Кбит/сек
Каналы : 2 канала
Частота : 48,0 КГц
Метод сжатия : С потерями
Размер потока : 30,3 Мбайт (10%)
Выравнивание : Соединение по промежуткам
Продолжительность промежутка : 40 мс. (1,00 видеокадр)
Время предзагрузки промежутка : 504 мс.
Библиотека кодирования : LAME3.99r
Настройки программы : -m j -V 4 -q 2 -lowpass 18.6 -b 192
Download / Скачать

Хотите скачать бесплатно? Зарегистрируйтесь на сайте (ссылка на регистрацию). Pirat.ca - самый быстрый торрент трекер в рунете!

Как скачивать  ·   Что такое торрент  ·   Рейтинг и ограничения

grosboy

Гроза морей

Пост 08-Сен-2017 00:51 (спустя 13 дней)

[Q] 

Хороший смешной сериал. Жаль в жизни так не получается...

_________________
Щастье есть - его не может не быть...
[Профиль]  [ЛС] 
Показать сообщения:    
Ответить на тему

Текущее время: Сегодня 19:45

Часовой пояс: GMT + 4



Вы не можете начинать темы
Вы не можете отвечать на сообщения
Вы не можете редактировать свои сообщения
Вы не можете удалять свои сообщения
Вы не можете голосовать в опросах
Вы не можете прикреплять файлы к сообщениям
Вы не можете скачивать файлы

▼ Вниз