Уважаемый Гость!
Вы можете поддержать проект и зарегистрироваться у наших партнеров - онлайн-стратегия MyLands. При регистрации в игре Вы получите код, который сможете активировать после регистрации на pirat.ca и получить 1000 дублонов.

Ваш код:
d49a3625bbdee1b82b14274f97c375f8b2b2ee4c
 
     

Отличница / Серии: 1-8 из 8 (Оксана Карас) [2017,детектив, драма, история,SATRip-AVC]

Ответить на тему
 
Автор
Сообщение

Пост 26-Сен-2017 02:36

[Q] 

aleksan555

Отличница --
Год выпуска: 2017
Производство: Россия, DT Production, Эпик Медиа
Жанр: детектив, драма, история
Продолжительность: ~ 00:46:00
Субтитры:нет

--
Режиссёр:Оксана Карас
--
В ролях:Яна Гладких, Никита Ефремов, Таисия Вилкова, Александр Яценко, Валентин Самохин, Дмитрий Лысенков, Владимир Мишуков, Виталий Коваленко, Юлия Ауг, Мартиньш Вилсонс, Елена Коренева, Игорь Скляр, Елена Руфанова, Анна Цуканова-Котт, Маргарита Адаева, Валерий Кухарешин, Анатолий Хропов
--
Описание:Апрель 1958 года, выпускница юридического факультета Ленинградского университета, кафедры уголовного процесса и криминалистики Мария Крапивина получает распределение в УГРО центрального районного отдела милиции. Совсем еще девчонка, отличница, дочь интеллигентных родителей попадает в коллектив состоящий из прошедших войну грубоватых и опытных оперативников.
В первый же день Маша хочет уволиться.

--

--
Качество: SATRip-AVC
Формат: MKV
Видео кодек: H.264
Аудио кодек: AAC
Видео: MPEG-4 AVC, 720х400,25fps,~1550 Кбит/сек,Bits/Pixel 0.215
Аудио: AC3, 48 kHz, ~192 Kbps, 2 канала

--
Общее
Уникальный идентификатор : 248795198577712321076951558083316967803 (0xBB2C365908D43CCC9A1090650B92697B)
Полное имя : F:\Отличница\01 серия_Отличница_rip by_Aleksan55.mkv
Формат : Matroska
Версия формата : Version 2
Размер файла : 579 Мбайт
Продолжительность : 46 м. 27 с.
Общий поток : 1743 Кбит/сек
Дата кодирования : UTC 2017-09-25 19:56:25
Программа кодирования : mkvmerge v7.8.0 ('River Man') 32bit built on Apr 3 2015 12:11:22
Библиотека кодирования : libebml v1.3.1 + libmatroska v1.4.2
Видео
Идентификатор : 1
Формат : AVC
Формат/Информация : Advanced Video Codec
Профиль формата : [email protected]
Параметр CABAC формата : Да
Параметр ReFrames формата : 14 кадров
Идентификатор кодека : V_MPEG4/ISO/AVC
Продолжительность : 46 м. 27 с.
Битрейт : 1550 Кбит/сек
Ширина : 720 пикселей
Высота : 400 пикселей
Соотношение сторон : 16:9
Режим частоты кадров : Постоянный
Частота кадров : 25,000 кадров/сек
Цветовое пространство : YUV
Субдискретизация насыщенности : 4:2:0
Битовая глубина : 8 бит
Тип развёртки : Прогрессивная
Бит/(Пиксели*Кадры) : 0.215
Размер потока : 504 Мбайт (87%)
Библиотека кодирования : x264 core 148 r2744kMod b97ae06
Настройки программы : cabac=1 / ref=14 / deblock=1:-1:-1 / analyse=0x3:0x133 / me=umh / subme=9 / psy=1 / fade_compensate=0.00 / psy_rd=1.00:0.15 / mixed_ref=0 / me_range=32 / chroma_me=1 / trellis=2 / 8x8dct=1 / cqm=0 / deadzone=21,11 / fast_pskip=0 / chroma_qp_offset=-3 / threads=3 / lookahead_threads=3 / sliced_threads=0 / nr=0 / decimate=0 / interlaced=0 / bluray_compat=0 / constrained_intra=0 / bframes=14 / b_pyramid=2 / b_adapt=1 / b_bias=0 / direct=3 / weightb=1 / open_gop=0 / weightp=2 / keyint=250 / keyint_min=25 / scenecut=40 / intra_refresh=0 / rc_lookahead=40 / rc=2pass / mbtree=1 / bitrate=1550 / ratetol=1.0 / qcomp=0.75 / qpmin=0 / qpmax=39 / qpstep=4 / cplxblur=20.0 / qblur=0.5 / ip_ratio=1.10 / aq=1:1.20
Default : Да
Forced : Нет
Цветовой диапазон : Limited
Основные цвета : BT.601 PAL
Характеристики трансфера : BT.470 System B, BT.470 System G
Коэффициенты матрицы : BT.601
Аудио
Идентификатор : 2
Формат : AC-3
Формат/Информация : Audio Coding 3
Расширение режима : CM (complete main)
Параметр Endianness формата : Big
Идентификатор кодека : A_AC3
Продолжительность : 46 м. 27 с.
Вид битрейта : Постоянный
Битрейт : 192 Кбит/сек
Каналы : 2 канала
Расположение каналов : Front: L R
Частота : 48,0 КГц
Частота кадров : 31,250 кадров/сек (1536 spf)
Битовая глубина : 16 бит
Метод сжатия : С потерями
Размер потока : 63,8 Мбайт (11%)
Default : Да
Forced : Нет
Внимание! Раздача ведётся путём добавления новых серий; при каждом добавлении создаётся новый торрент.
Чтобы начать докачку новой серии, пользователям необходимо сделать следующее:
1. Остановить скачивание;
2. Удалить старый торрент у себя из клиента (старые серии удалять не надо);
3. Скачать новый торрент и запустить его у себя в клиенте вместо старого, при этом указать клиенту путь в старую папку куда и должно происходить скачивание новых серий. Ваш клиент при этом должен произвести хеширование (проверку) старой папки и будет докачивать только те серии, которых у вас ещё нет. Старые серии при этом не удаляются, а продолжают раздаваться! Eсли вы уже удалили старые серии, то предотвратить повторную закачку старых серий можно, отжав галочку в соответствующих местах при запуске нового торрента.
-- Добавлены 7-8 серия.
Download / Скачать

Хотите скачать бесплатно? Зарегистрируйтесь на сайте (ссылка на регистрацию). Pirat.ca - самый быстрый торрент трекер в рунете!

Как скачивать  ·   Что такое торрент  ·   Рейтинг и ограничения



Последний раз редактировалось: aleksan555 (2017-09-29 02:06), всего редактировалось 1 раз

jofrei53

Флибустьер

Пост 28-Сен-2017 14:25 (спустя 2 дня 11 часов)

[Q] 

Спасибо! Заинтересовало.... Спасибо!!! Автору респект!!!
[Профиль]  [ЛС] 

Prorok155

Корсар

Пост 30-Сен-2017 09:59 (спустя 1 день 19 часов)

[Q] 

Спасибо. Лови бочку
[Профиль]  [ЛС] 
Показать сообщения:    
Ответить на тему

Текущее время: Сегодня 19:40

Часовой пояс: GMT + 4



Вы не можете начинать темы
Вы не можете отвечать на сообщения
Вы не можете редактировать свои сообщения
Вы не можете удалять свои сообщения
Вы не можете голосовать в опросах
Вы не можете прикреплять файлы к сообщениям
Вы не можете скачивать файлы

▼ Вниз