ML
     
  Уважаемый Гость!
Вы можете поддержать проект и зарегистрироваться у наших партнеров - онлайн-стратегия MyLands. При регистрации в игре Вы получите код, который сможете активировать после регистрации на pirat.ca и получить 1000 дублонов.

Ваш код:
a01a592a88af5f9996a6d1baec61b18a1769954d
 
     

Котовский ( Серии: 1-8 серии из 8) (Станислав Назиров) [2009 г., Приключения, история, DVDRip]

Ответить на тему
 
Автор
Сообщение

Пост 20-Фев-2012 17:24

[Q] 

petrovich400

Штурман

Котовский Серии: 1-8 серии из 8)
Год выпуска: 2009
Производство: Россия, Украина
Жанр: Приключения, история
Продолжительность серии: 00:44
Перевод: Не требуется
Субтитры: отсутствуют
Режиссер: Станислав Назиров
В ролях
Владислав Галкин, Марина Александрова, Михаил Ефремов, Ирина Наумкина, Александр Макогон, Михаил Крылов, Иван Стебунов, Максим Лагашкин, Андрей Гусев, Александр Пашутин
Описание
Жизнь и обстоятельства гибели красного командира Григория Ивановича Котовского до сих пор окутаны тайной. Котовский — одна из наиболее ярких фигур Октябрьской революции. Необычайная смелость, отвага и разбойничья удаль создали легенды вокруг его имени.
Потомок старинного польского аристократического рода, Котовский прошел большой революционный путь и стал признанным военным командиром: шесть раз он бежал из тюрьмы, был приговорен к смертной казни и вновь бежал, чтобы стать одним из самых пламенных воинов революции. Его знаменитая конная бригада билась с врагом под Киевом и Белой Церковью, у Николаева и Одессы, и нигде не знала поражений...
Источник/Качество: DVDRip
Формат: AVI
Видео кодек: DivX
Аудио кодек: AC3
Видео: 720x400 (1.80:1), 25 fps, XviD build 50 ~1529 kbps avg, 0.21 bit/pixel
Аудио: 48 kHz, AC3 Dolby Digital, 2/0 (L,R) Surround Encoded ch, ~192 kbps
Общее
Полное имя Kotovskij.1-8.ser.iz.8.2009.XviD.DVDRip.WEW\Kotovskij.1.ser.iz.8.2009.XviD.DVDRip.WEW.avi
Формат : AVI
Формат/Информация : Audio Video Interleave
Размер файла : 547 Мбайт
Продолжительность : 44 м.
Общий поток : 1732 Кбит/сек
Программа кодирования : VirtualDubMod 1.5.10.2 (build 2540/release)
Библиотека кодирования : VirtualDubMod build 2540/release
Видео
Идентификатор : 0
Формат : MPEG-4 Visual
Профиль формата : Advanced [email protected]
Параметр BVOP формата : 1
Параметр QPel формата : Нет
Параметр GMC формата : Без точки перехода
Параметр матрицы формата : Default (H.263)
Идентификатор кодека : XVID
Идентификатор кодека/Подсказка : XviD
Продолжительность : 44 м.
Битрейт : 1530 Кбит/сек
Ширина : 720 пикселей
Высота : 400 пикселей
Соотношение сторон : 16:9
Частота кадров : 25,000 кадров/сек
Цветовое пространство : YUV
Субдискретизация насыщенности : 4:2:0
Битовая глубина : 8 бит
Тип развёртки : Прогрессивная
Метод сжатия : С потерями
Бит/(Пиксели*Кадры) : 0.212
Размер потока : 483 Мбайт (88%)
Библиотека кодирования : XviD 1.2.1 (UTC 2008-12-04)
Аудио
Идентификатор : 1
Формат : AC-3
Формат/Информация : Audio Coding 3
Профиль формата : Dolby Digital
Расширение режима : CM (complete main)
Идентификатор кодека : 2000
Продолжительность : 44 м.
Вид битрейта : Постоянный
Битрейт : 192 Кбит/сек
Каналы : 2 канала
Расположение каналов : Front: L R
Частота : 48,0 КГц
Битовая глубина : 16 бит
Метод сжатия : С потерями
Размер потока : 60,6 Мбайт (11%)
Выравнивание : Разделение по промежуткам
Продолжительность промежутка : 40 мс. (1,00 видеокадр)
Время предзагрузки промежутка : 500 мс.
Download / Скачать

Хотите скачать бесплатно? Зарегистрируйтесь на сайте (ссылка на регистрацию). Pirat.ca - самый быстрый торрент трекер в рунете!

Как скачивать  ·   Что такое торрент  ·   Рейтинг и ограничения



Последний раз редактировалось: petrovich400 (2012-02-21 01:19), всего редактировалось 2 раз(а)

Пост 20-Фев-2012 19:03 (спустя 1 час 39 минут)

Топик был перенесен из форума Сериалы в форум Отечественные сериалы

gEmOkPaT
 

Aswer120786

Лоцман

Пост 23-Фев-2012 11:37 (спустя 2 дня 18 часов)

[Q] 

Встаньте на раздачу плизз
[Профиль]  [ЛС] 

$S.W.A.T$

Морской Волк

Пост 01-Мар-2012 00:29 (спустя 6 дней)

[Q] 

отличный фильм.
[Профиль]  [ЛС] 

okorm

889

Пост 20-Фев-2013 07:06 (спустя 11 месяцев 19 дней)

[Q] 

[Профиль]  [ЛС] 

Егор Цыцаркин

Морской Волк

318

Пост 27-Янв-2014 16:44 (спустя 11 месяцев 7 дней)

[Q] 

Благодарю!
Лови бочку

_________________
[Профиль]  [ЛС] 

Nik DeBori

Морской Волк

Пост 01-Мар-2014 20:36 (спустя 1 месяц 5 дней)

[Q] 

Спасибо! Достойный фильм. Неплохо было-бы продолжение.
Мне понравилось Раздающему респект!
[Профиль]  [ЛС] 

rai

296

Пост 12-Май-2014 09:46 (спустя 2 месяца 10 дней)

[Q] 

Фильм неплохой. Спасибо. Раздачу поддержу. Спасибо!!!
[Профиль]  [ЛС] 

varlog2000

Лоцман

Пост 03-Июл-2014 20:42 (спустя 1 месяц 22 дня)

[Q] 

Спасибо. Неплохой фильм.
[Профиль]  [ЛС] 

янка-сан

Гроза морей

Пост 19-Дек-2015 01:25 (спустя 1 год 5 месяцев)

[Q] 

спасибо Мне понравилось Лови бочку
[Профиль]  [ЛС] 
Показать сообщения:    
Ответить на тему

Текущее время: Сегодня 09:46

Часовой пояс: GMT + 4



Вы не можете начинать темы
Вы не можете отвечать на сообщения
Вы не можете редактировать свои сообщения
Вы не можете удалять свои сообщения
Вы не можете голосовать в опросах
Вы не можете прикреплять файлы к сообщениям
Вы не можете скачивать файлы

▼ Вниз