ML
     
  Уважаемый Гость!
Вы можете поддержать проект и зарегистрироваться у наших партнеров - онлайн-стратегия MyLands. При регистрации в игре Вы получите код, который сможете активировать после регистрации на pirat.ca и получить 1000 дублонов.

Ваш код:
822959f93c00d34653763d5bbf9ee9a7134af98a
 
     

Московский дворик ( Серии: 1-8 из 8) (Владимир Щегольков) [2009 г., драма, DVDRip]

Ответить на тему
 
Автор
Сообщение

Пост 07-Мар-2012 22:55

[Q] 

petrovich400

Штурман

Московский дворик
( Серии: 1-8 из 8)
Год выпуска: 2009
Дата выхода DVD: 13 февраля 2012
Производство: Россия
Жанр: драма
Продолжительность серии: 00:50
Перевод: Не требуется
Субтитры: отсутствуют
Режиссер: Владимир Щегольков
В ролях
Мадлен Джабраилова, Ксения Караева, Александр Коршунов, Клавдия Коршунова, Федор Лавров, Дмитрий Муляр, Наталья Никуленко, Александр Орловский, Дмитрий Поднозов, Сергей Удовик и др.
Описание
Действие фильма начинается в 1937 году. Николай Зотов случайно узнает, что его, главного инженера крупного Московского завода, должны арестовать. Он уверен в своей невиновности и готов это доказать. Все происшедшее он считает провокацией. Но жена Людмила, думает иначе. Она не сомневается в невиновности мужа, но вокруг слишком много примеров, когда исчезали люди, ни в чём не повинные. И она убеждает мужа уйти из дома, опасаясь за его жизнь.
Уехав в тихий провинциальный городок, Николай устраивается слесарем на местный завод в ожидании «лучших времён», даже не предполагая, что оставил семью на долгие годы.
Жена Николая оказывается в чрезвычайно сложном положении: на руках двое малолетних детей, родные от неё отвернулись, нет средств к существованию. Если бы не помощь обитателей двора — когда добрым словом, а когда и деньгами, — она вряд ли бы выжила. Особенно помогла ей айсорка Зарда, мать многочисленного семейства
Так и живут Зотовы на два дома, изредка тайно встречаясь и скрывая от всех, даже самых близких, не только место, где работает Николай, а вообще, что он есть на свете.
Известие о начале войны разрушает надежду Николая на скорую встречу с родными людьми. Зотов, рискуя быть арестованным, идёт добровольцем на фронт.
Николай сразу попадает в окружение и оказывается в белорусских лесах. Постепенно из красноармейцев, попавших в окружение, вокруг него сколачивается отряд. Незаурядные лидерские способности позволяют ему сделать из своего отряда вполне боеспособное соединение. С боями пробивается отряд к своим.
Параллельно с фронтовыми испытаниями главного героя описывается жизнь его жены и женщин, которые окружают её в военной Москве. Жизнь тяжёлая, не всегда праведная, но направленная на святое дело — сохранение жизни своих детей. В небольшом московском дворике живут люди разных национальностей, разного достатка и общественного положения. Но все они едины в одном — желании скорейшей Победы над врагом.
КиноПоиск
Источник/Качество: DVDRip
Формат: AVI
Видео кодек: XviD
Аудио кодек: MP3
Видео: 704x400 (1.76:1), 25 fps, XviD MPEG-4 ~1310 kbps avg, 0.19 bit/pixel
Аудио: 48 kHz, MPEG Layer 3, 2 ch, ~128.00 kbps avg
Общее
Полное имя : Московский дворик
Формат : AVI
Формат/Информация : Audio Video Interleave
Размер файла : 531 Мбайт
Продолжительность : 51 м.
Общий поток : 1448 Кбит/сек
Библиотека кодирования : VirtualDub-MPEG2 build 24600/release
Видео
Идентификатор : 0
Формат : MPEG-4 Visual
Профиль формата : Advanced [email protected]
Параметр BVOP формата : 2
Параметр QPel формата : Нет
Параметр GMC формата : Без точки перехода
Параметр матрицы формата : Default (H.263)
Режим смешивания : Сжатый битовый поток
Идентификатор кодека : XVID
Идентификатор кодека/Подсказка : XviD
Продолжительность : 51 м.
Битрейт : 1310 Кбит/сек
Ширина : 704 пикселя
Высота : 400 пикселей
Соотношение сторон : 16:9
Частота кадров : 25,000 кадров/сек
Цветовое пространство : YUV
Субдискретизация насыщенности : 4:2:0
Битовая глубина : 8 бит
Тип развёртки : Прогрессивная
Метод сжатия : С потерями
Бит/(Пиксели*Кадры) : 0.186
Размер потока : 481 Мбайт (90%)
Библиотека кодирования : XviD 1.2.1 (UTC 2008-12-04)
Аудио
Идентификатор : 1
Формат : MPEG Audio
Версия формата : Version 1
Профиль формата : Layer 3
Режим : Joint stereo
Расширение режима : MS Stereo
Идентификатор кодека : 55
Идентификатор кодека/Подсказка : MP3
Продолжительность : 51 м.
Вид битрейта : Постоянный
Битрейт : 128 Кбит/сек
Каналы : 2 канала
Частота : 48,0 КГц
Метод сжатия : С потерями
Размер потока : 47,0 Мбайт (9%)
Выравнивание : Разделение по промежуткам
Продолжительность промежутка : 40 мс. (1,00 видеокадр)
Время предзагрузки промежутка : 500 мс.
Download / Скачать

Хотите скачать бесплатно? Зарегистрируйтесь на сайте (ссылка на регистрацию). Pirat.ca - самый быстрый торрент трекер в рунете!

Как скачивать  ·   Что такое торрент  ·   Рейтинг и ограничения

kiryandr

Легенда

63136

Пост 07-Мар-2012 23:14 (спустя 19 минут)

[Q] 

Помогаю!!!

_________________
[Профиль]  [ЛС] 

Пост 08-Мар-2012 04:35 (спустя 5 часов)

Топик был перенесен из форума Сериалы в форум Отечественные сериалы

gEmOkPaT
 

abc7

Гроза морей

464

Пост 20-Мар-2012 19:53 (спустя 12 дней)

[Q] 

[Профиль]  [ЛС] 
Показать сообщения:    
Ответить на тему

Текущее время: Сегодня 05:59

Часовой пояс: GMT + 4



Вы не можете начинать темы
Вы не можете отвечать на сообщения
Вы не можете редактировать свои сообщения
Вы не можете удалять свои сообщения
Вы не можете голосовать в опросах
Вы не можете прикреплять файлы к сообщениям
Вы не можете скачивать файлы

▼ Вниз