ML
     
  Уважаемый Гость!
Вы можете поддержать проект и зарегистрироваться у наших партнеров - онлайн-стратегия MyLands. При регистрации в игре Вы получите код, который сможете активировать после регистрации на pirat.ca и получить 1000 дублонов.

Ваш код:
73640f24f8a0f579e128ea7346fd2db2b1009143
 
     

Сонька золотая ручка (Сезон: 1 / Серии: 1-12 из 12) (Виктор Мережко) [2007 г., драма, детектив, DVDRip]

Ответить на тему
 
Автор
Сообщение

Пост 13-Мар-2012 20:16

[Q] 

Gekon86ru

Морской Волк

Сонька золотая ручка
(Сезон: 1 / Серии: 1-12)
Год выпуска: 2007
Мировая премьера: 23 апреля 2007
Российская премьера: 23 апреля 2007
Дата выхода DVD: 15 декабря 2009
Производство: Россия
Жанр: драма, детектив
Продолжительность серии: 12 х ~ 0:46:47
Перевод: Не требуется
Режиссер: Виктор Мережко
В ролях
Анастасия Микульчина
Богдан Ступка
Ирина Алферова
Михаил Щетинин
Зоя Буряк
Дмитрий Аверин
Олег Басилашвили
Иван Бортник
Игорь Ботвин
Сергей Перегудов
Описание
В середине семидесятых годов XIX века о ней слагались легенды, она была неуловима и невероятно изобретательна, ее таланту и авторитету в уголовном мире не было равных. Благодаря поистине редкому криминальному мышлению она приобрела опыт и смелость, подчинив свою жизнь и интеллект воровской профессии. В поле зрения Соньки оказывались крупные банкиры, иностранные дельцы, помещики, владельцы ювелирных магазинов, аристократические клубы, квартиры состоятельных людей.
Это была яркая и талантливая, красивая и циничная, обаятельная и любвеобильная женщина, решившая для себя, что жизнь - игра, и с этой игрой она не один год гастролировала по России и за рубежом, поражая воровской смекалкой, ловко убегая от полиции, искусно исчезая и заметая следы...
Бог наградил дочку фальшивомонетчика многими талантами. Ее глаза излучали магическую притягательность, от которой теряли голову даже тюремные надзиратели. Она говорила на нескольких языках, и в Европе ее принимали за баронессу. При встрече с ней было трудно предположить, что на счету этой маленькой, хрупкой женщины самые громкие и дерзкие ограбления…
Таинственная жизнь, загадочный финал. Но разве может быть иначе, когда речь идет о великой аферистке, королеве воровского мира Соньке Золотой Ручке?!
Качество: DVDRip
Формат: AVI

Видео кодек: XviD
Аудио кодек: MP3
Видео: 720x416 (1.73:1), 25 fps, XviD build 50 ~1407 kbps avg, 0.19 bit/pixel
Аудио: 48 kHz, MPEG Layer 3, 2 ch, ~192.00 kbps avg
F:\торрент\sonka zolotaya ruchka[pirat.ca]\Sonka.01..avi
Формат : AVI
Формат/Информация : Audio Video Interleave
Размер файла : 550 Мбайт
Продолжительность : 47 м.
Общий поток : 1607 Кбит/сек
Программа кодирования : VirtualDubMod 1.5.4.1 (build 2178/release)
Библиотека кодирования : VirtualDubMod build 2178/release
Видео
Идентификатор : 0
Формат : MPEG-4 Visual
Профиль формата : Advanced [email protected]
Параметр BVOP формата : 1
Параметр QPel формата : Нет
Параметр GMC формата : Без точки перехода
Параметр матрицы формата : Выборочная
Идентификатор кодека : XVID
Идентификатор кодека/Подсказка : XviD
Продолжительность : 47 м.
Битрейт : 1408 Кбит/сек
Ширина : 720 пикселей
Высота : 416 пикселей
Соотношение сторон : 16:9
Частота кадров : 25,000 кадров/сек
Цветовое пространство : YUV
Субдискретизация насыщенности : 4:2:0
Битовая глубина : 8 бит
Тип развёртки : Прогрессивная
Метод сжатия : С потерями
Бит/(Пиксели*Кадры) : 0.188
Размер потока : 482 Мбайт (88%)
Библиотека кодирования : XviD 1.2.1 (UTC 2008-12-04)
Аудио
Идентификатор : 1
Формат : MPEG Audio
Версия формата : Version 1
Профиль формата : Layer 3
Режим : Joint stereo
Расширение режима : MS Stereo
Идентификатор кодека : 55
Идентификатор кодека/Подсказка : MP3
Продолжительность : 47 м.
Вид битрейта : Постоянный
Битрейт : 192 Кбит/сек
Каналы : 2 канала
Частота : 48,0 КГц
Метод сжатия : С потерями
Размер потока : 65,7 Мбайт (12%)
Выравнивание : Соединение по промежуткам
Продолжительность промежутка : 80 мс. (2,00 видеокадра)
Время предзагрузки промежутка : 504 мс.
Библиотека кодирования : LAME3.98r
Настройки программы : -m j -V 4 -q 2 -lowpass 18.6 -b 192
имеется вторая часть, если нужно будет
Download / Скачать

Хотите скачать бесплатно? Зарегистрируйтесь на сайте (ссылка на регистрацию). Pirat.ca - самый быстрый торрент трекер в рунете!

Как скачивать  ·   Что такое торрент  ·   Рейтинг и ограничения



Последний раз редактировалось: Gekon86ru (2012-03-14 10:41), всего редактировалось 10 раз(а)

OlegSh

Морской Волк

Пост 14-Мар-2012 08:28 (спустя 12 часов)

[Q] 

интересно , наверное
[Профиль]  [ЛС] 

Пост 14-Мар-2012 12:15 (спустя 3 часа)

Топик был перенесен из форума Сериалы в форум Отечественные сериалы

gEmOkPaT
 

OlegSh

Морской Волк

Пост 16-Мар-2012 08:46 (спустя 2 дня)

[Q] 

ну давайте уже раздавать.....
[Профиль]  [ЛС] 

OlegSh

Морской Волк

Пост 20-Мар-2012 09:01 (спустя 4 дня)

[Q] 

как на счет второй части?
[Профиль]  [ЛС] 

abc7

Гроза морей

464

Пост 20-Мар-2012 19:38 (спустя 10 часов)

[Q] 

[Профиль]  [ЛС] 

Gekon86ru ®

Морской Волк

285

Пост 24-Мар-2012 20:52 (спустя 4 дня)

[Q] 

как на счет второй части?
понял, выкладываю ch

_________________
Самый лучший игровой сервер это ЗЕМЛЯ. 6 млрд игроков, лагов и читеров нет, админ терпеливый.. но уж если забанит :)
[Профиль]  [ЛС] 

erchine

44806

Пост 25-Июл-2012 11:42 (спустя 4 месяца)

[Q] 

-Фильмы с участием Богдана Ступки на трекере:-Дом (Олег Погодин) [2011 г.] (Драма, криминал) [DVD-9] [internal release] (пост)-Огнем и мечом / Ogniem i mieczem (Ежи Гоффман / Jerzy Hoffman) [1999 г., драма, мелодрама, приключения, военный, история, BDRip-AVC] MVO [Jolly Roger]-[Jolly Roger] Старое предание. Когда солнце было богом / Stara basn. Kiedy slonce bylo bogiem (Ежи Гоффман / Jerzy Hoffman) [2003 г., фэнтези, драма, DVDRip] MVO-Свои (Дмитрий Месхиев) [2004 г., боевик, драма, военный, DVDRip]-Сонька золотая ручка (Сезон: 1 / Серии: 1-12 из 12) (Виктор Мережко) [2007 г., драма, детектив, DVDRip]-Трое и снежинка (Павел Бардин, Мгер Мкртчян ) [2007 г.,Комедия, мелодрама, DVDRip ]-Александр. Невская битва (Игорь Каленов) [2008 г., Драма, военный, биография, история, BDRip]-Огни притона (Александр Гордон) [2011 г., драма, мелодрама, музыка, DVDRip]-Шантрапа / Shantrapa (Отар Иоселиани / Otar Iosseliani) [2010 г., комедия, биография, DVDRip] (Лицензия)-Тарас Бульба (Владимир Бортко) [2009 г., История, военный, драма, BDRip]
[Профиль]  [ЛС] 

Sergi4

Гроза морей

Пост 18-Фев-2013 13:43 (спустя 6 месяцев 24 дня)

[Q] 

[Профиль]  [ЛС] 

CHARLI2236

1089

Пост 12-Сен-2013 13:04 (спустя 6 месяцев 21 день)

[Q] 

подключусь AntiZip 6

_________________
[Профиль]  [ЛС] 

E8GEN

Корсар

Пост 18-Дек-2013 14:08 (спустя 3 месяца 6 дней)

[Q] 

спасибо,давно хотел пересмотреть без навязчивой и раздражающей рекламы)
[Профиль]  [ЛС] 

me14

999

Пост 03-Янв-2014 14:53 (спустя 16 дней)

[Q] 

спасибо за раздачу!!!!

_________________
Если вы все еще не забанены - это не ваша заслуга, а модераторская недоработка.
[Профиль]  [ЛС] 

Nik DeBori

Морской Волк

Пост 01-Мар-2014 20:59 (спустя 1 месяц 29 дней)

[Q] 

Спасибо!!! Класный фильм. Мне понравилось
[Профиль]  [ЛС] 

янка-сан

Гроза морей

Пост 19-Дек-2015 01:42 (спустя 1 год 9 месяцев)

[Q] 

спасибо Мне понравилось Лови бочку
[Профиль]  [ЛС] 
Показать сообщения:    
Ответить на тему

Текущее время: Сегодня 22:38

Часовой пояс: GMT + 4



Вы не можете начинать темы
Вы не можете отвечать на сообщения
Вы не можете редактировать свои сообщения
Вы не можете удалять свои сообщения
Вы не можете голосовать в опросах
Вы не можете прикреплять файлы к сообщениям
Вы не можете скачивать файлы

▼ Вниз